Welcome Guest ( Log In | Register )

> Releases Upload / Добавление релизов

Добавить релиз тут / Click here to add release
Рекомендованные обменники / Recommended file shares

> Puke Mutant - An Unsightly Desecration [ep] (2021), Death Metal
post Sep 13 2021, 09:08:18
Post #1

A Forgotten Dream
**************
Group: Металариец
Posts: 6,718
Releases: 8
On Forums: 11 years 11 months
Thanks: 3182 time(s)
Unknown


(IMG:https://metalarea.org/images/audiocovers/2021_Sep/acov_tid355448_thumb.jpg)

*Artist: Puke Mutant
*Album: An Unsightly Desecration [ep]
*Year: 2021
*Genre: Death Metal
*Country: United States (IMG:https://metalarea.org/forum/style_images/flags/United%20States.png)
*Format: mp3@VBR312kbps
*Size: 52MB

Tracklist:
1. A Deep and Unholy Fixation 04:13
2. Countless Bottles of Bile and Thick Fluids 03:20
3. Necrotic Sexual Deviancy 04:33
4. An Unsightly Desecration 03:13
5. Vomit Infused Dominant Mutations 04:06
6. ...Fucked Upon 03:27
******************************
Total playing time: 22:52



Extended info
RAW AUTOPSY-LIKE GOATSHIT


Technical info
(IMG:https://metalarea.org/images/spectrogram/2021_Sep/abcc962e95ac856c0e81139c4c20ce74.png)
Input File: Puke Mutant - An Unsightly Desecration - 02 Countless Bottles of Bile and Thick Fluids.mp3
Channels : 2
Sample Rate : 44100
Precision : 16-bit
Duration : 00:03:20.52 = 8842712 samples = 15038.6 CDDA sectors
File Size : 7.67M
Bit Rate : 306k
Sample Encoding: MPEG audio (layer I, II or III)
Comments :
Title=Countless Bottles of Bile and Thick Fluids
Artist=Puke Mutant
Album=An Unsightly Desecration
Tracknumber=2
Year=2021



Register


Go to the top of the page
  Insert nick Quick quote
+Quote Post
 
Start new topic
Replies (1 - 1)
post Oct 13 2021, 11:21:51
Post #2

добрый мизантроп
**************
Group: Металариец
Posts: 2,525
Releases: 1
From: Менск
On Forums: 10 years 11 months
Thanks: 1100 time(s)
Madagascar


Вроде норм, но запись - тупо гул на частоте 125 Гц, а там как раз самая музыка, драммы и гитарки хороши. Либо нужно топовая аккустика, либо идти мимо
Go to the top of the page
  Insert nick Quick quote
+Quote Post

Reply to this topicStart new topic
2 User(s) are reading this topic (2 Guests and 0 Anonymous Users)
0 Members:

 



- Lo-Fi Version Support form
Copyrights and abuse reports form
Time is now: 28th October 2021 - 20:56:30