Welcome Guest ( Log In | Register )

> Månen Skygge - Drowning In Silent Echoes (2021), Atmospheric/Depressive Black Metal
post Sep 13 2021, 13:21:04
Post #1

KPN 666
**************
Group: Металариец
Posts: 2,789
Releases: 1368
From: Тегеран
On Forums: 12 years 5 months
Thanks: 19572 time(s)
Iran


(IMG:http://metalarea.org/images/audiocovers/2021_Sep/acov_tid355449_thumb.jpg)

*Artist: Månen Skygge
*Album: Drowning In Silent Echoes
*Year: 2021
*Genre: Atmospheric/Depressive Black Metal
*Country: Australia (IMG:http://metalarea.org/forum/style_images/flags/Australia.png)
*Format: mp3@CBR320kbps
*Size: 87MB

Tracklist:
01. Spiral to Severance
02. The Dark Room
03. Drowning in Silent Echoes
04. And Forever the Worms Will Feed
******************************
Total playing time: 37:50



Technical info
(IMG:http://metalarea.org/images/spectrogram/2021_Sep/93df95d46092d3dffccbd2e64c44e8e3.png)
Input File: 01 - Spiral to Severance.mp3
Channels : 2
Sample Rate : 44100
Precision : 16-bit
Duration : 00:00:00.56 = 24784 samples = 42.1497 CDDA sectors
File Size : 22.7M
Bit Rate : 324M
Sample Encoding: MPEG audio (layer I, II or III)
Comments :
Title=Spiral to Severance
Artist=Månen Skygge
Album=Drowning in Silent Echoes
Tracknumber=1/4
Year=2021
Genre=Atmospheric/Depressive Black Metal



Register


Go to the top of the page
  Insert nick Quick quote
+Quote Post
 
Start new topic
Replies (1 - 2)
post Sep 14 2021, 16:40:17
Post #2

Три Литра
***
Group: Завсегдатай
Posts: 213
Releases: 5
On Forums: 3 years 9 months
Thanks: 716 time(s)
Unknown


...The Empire FLACs Back...

Register


Thanks:
Go to the top of the page
  Insert nick Quick quote
+Quote Post
post Sep 15 2021, 13:25:26
Post #3

Три Литра
***
Group: Завсегдатай
Posts: 276
Releases: 1
From: Brasil - Sao Paulo
On Forums: 1 year 7 months
Thanks: 114 time(s)
Brazil


QUOTE
...The Empire FLACs Back...

lol Dude, you're funny, thanks for the flacs!


Go to the top of the page
  Insert nick Quick quote
+Quote Post

Reply to this topicStart new topic
1 User(s) are reading this topic (1 Guests and 0 Anonymous Users)
0 Members:

 



- Lo-Fi Version Support form
Copyrights and abuse reports form
Time is now: 4th December 2021 - 12:03:13