Welcome Guest ( Log In | Register )

> Releases Upload / Добавление релизов

Добавить релиз тут / Click here to add release
Рекомендованные обменники / Recommended file shares

> Ecpatia - 3:15 Am (2021), Depressive Black Metal (D5)
post Sep 13 2021, 14:29:38
Post #1

KPN 666
**************
Group: Металариец
Posts: 2,735
Releases: 1321
From: Тегеран
On Forums: 12 years 2 months
Thanks: 19033 time(s)
Iran


(IMG:http://metalarea.org/images/audiocovers/2021_Sep/acov_tid355450_thumb.jpg)

*Artist: Ecpatia
*Album: 3:15 Am
*Year: 2021
*Genre: Depressive Black Metal
*Country: Costa Rica (IMG:http://metalarea.org/forum/style_images/flags/Costa%20Rica.png)
*Format: mp3@CBR320kbps
*Size: 67MB

Tracklist:
01. Lost
02. By My Name
03. Encierro
04. Last Sound of Bells
06. 3:15 AM
07. Outro: Bye
******************************
Total playing time: 31:18

Technical info
(IMG:http://metalarea.org/images/spectrogram/2021_Sep/bc083287bbb0088a2d504d4d3e2e1ade.png)
Input File: 01. Lost.mp3
Channels : 2
Sample Rate : 44100
Precision : 16-bit
Duration : 00:00:00.34 = 15038 samples = 25.5748 CDDA sectors
File Size : 13.7M
Bit Rate : 322M
Sample Encoding: MPEG audio (layer I, II or III)
Comments :
Title=Lost
Artist=Ecpatia
Album=3:15Am
Tracknumber=1
Year=2021-01-03
Genre=Metal
Discnumber=1



Register


Go to the top of the page
  Insert nick Quick quote
+Quote Post
 
Start new topic
Replies (1 - 1)
post Sep 14 2021, 10:55:48
Post #2

Common dweller of hell
**************
Group: Металариец
Posts: 4,005
Releases: 12
From: Dnipro
On Forums: 13 years 2 months
Thanks: 1563 time(s)
Ukraine


Go to the top of the page
  Insert nick Quick quote
+Quote Post

Reply to this topicStart new topic
1 User(s) are reading this topic (1 Guests and 0 Anonymous Users)
0 Members:

 



- Lo-Fi Version Support form
Copyrights and abuse reports form
Time is now: 24th September 2021 - 01:48:35