Welcome Guest ( Log In | Register )

> Releases Upload / Добавление релизов

Добавить релиз тут / Click here to add release
Рекомендованные обменники / Recommended file shares

> Ecpatia - Touched By Sun (2021), Depressive Black Metal (D5)
post Sep 13 2021, 14:37:49
Post #1

KPN 666
**************
Group: Металариец
Posts: 2,735
Releases: 1321
From: Тегеран
On Forums: 12 years 2 months
Thanks: 19048 time(s)
Iran


(IMG:http://metalarea.org/images/audiocovers/2021_Sep/acov_tid355451_thumb.jpg)

*Artist: Ecpatia
*Album: Touched By Sun
*Year: 2021
*Genre: Depressive Black Metal
*Country: Costa Rica (IMG:http://metalarea.org/forum/style_images/flags/Costa%20Rica.png)
*Format: mp3@CBR320kbps
*Size: 107MB

Tracklist:
01. Intro: 911 5:03
02. Sirenas 5:08
03. The Child 5:48
04. A Wortheless Life 7:00
05. Mass Rejected 5:19
06. Touched by Sun 8:15
07. When Was the Last Time You Were Actually Happy? 4:54
08. Last Good Bye 6:19
******************************
Total playing time: 47:46

Technical info
(IMG:http://metalarea.org/images/spectrogram/2021_Sep/54d3c5aa5a945c704d9ef6e9a5339e90.png)
Input File: 05. Mass Rejected.mp3
Channels : 2
Sample Rate : 44100
Precision : 16-bit
Duration : 00:00:00.32 = 14024 samples = 23.8503 CDDA sectors
File Size : 12.8M
Bit Rate : 322M
Sample Encoding: MPEG audio (layer I, II or III)
Comments :
Title=Mass Rejected
Artist=Ecpatia
Album=Touched by Sun
Tracknumber=5
Year=2021-03-03
Genre=Metal
Discnumber=1



Register


Go to the top of the page
  Insert nick Quick quote
+Quote Post
 
Start new topic
Replies (1 - 1)
post Sep 14 2021, 10:54:52
Post #2

Common dweller of hell
**************
Group: Металариец
Posts: 4,012
Releases: 12
From: Dnipro
On Forums: 13 years 2 months
Thanks: 1566 time(s)
Ukraine


Go to the top of the page
  Insert nick Quick quote
+Quote Post

Reply to this topicStart new topic
2 User(s) are reading this topic (2 Guests and 0 Anonymous Users)
0 Members:

 



- Lo-Fi Version Support form
Copyrights and abuse reports form
Time is now: 25th September 2021 - 13:51:09