Welcome Guest ( Log In | Register )

> Releases Upload / Добавление релизов

Добавить релиз тут / Click here to add release
Рекомендованные обменники / Recommended file shares

> Khephra - I 9 Volti Del Demonio (2017), Black Metal (D)
post Sep 13 2021, 14:47:06
Post #1

Правь статус, ####!616
**************
Group: Металариец
Posts: 6,972
Releases: 5417
From: 55°35’N 38°08’E
On Forums: 13 years 2 months
Thanks: 99395 time(s)
Unknown


(IMG:https://metalarea.org/images/audiocovers/2021_Sep/acov_tid355452_thumb.jpg)

*Artist: Khephra
*Album: I 9 Volti Del Demonio
*Year: 2017
*Genre: Black Metal
*Country: Italy (IMG:https://metalarea.org/forum/style_images/flags/Italy.png)
*Format: mp3@VBR277kbps
*Size: 124MB

Tracklist:
1. Il Maniaco della Luna 06:23
2. Gelidi Sentieri 03:43
3. The Free Way Killer 05:05
4. La Casa Degli Orrori 03:47
5. Il Mostro di Terrazzo 04:43
6. L'uomo Grigio 02:05
7. Madre Morte 04:10
8. Empirika 04:55
9. Il Mostro vi Guarda 04:35
10. Il Cacciatore della Notte 05:26
11. La Saponificatrice 03:09
12. Green River Killer 04:15
13. Compassionevole Crudeltà 04:43
14. Prologue (Waiting for His Coming) (Evol cover) 05:21
******************************
Total playing time: 1:02:20


(IMG:https://metalarea.org/images/youtube.png)

Extended info
CD, War Kommand Productions (W.K.R.2/10)


Technical info
(IMG:https://metalarea.org/images/spectrogram/2021_Sep/e59bf9bfed574bf1294aa29cddbbc811.png)
Input File: 01. Il Maniaco della Luna.mp3
Channels : 2
Sample Rate : 44100
Precision : 16-bit
Duration : 00:06:23.31 = 16903795 samples = 28748 CDDA sectors
File Size : 13.4M
Bit Rate : 279k
Sample Encoding: MPEG audio (layer I, II or III)
Comments :
Title=Il Maniaco della Luna
Artist=Khephra
Album=I 9 Volti del Demonio
Tracknumber=1/14
Year=2017-00-00
Genre=Black Metal



Register


Go to the top of the page
  Insert nick Quick quote
+Quote Post
 
Start new topic
Replies (1 - 4)
post Sep 14 2021, 08:52:47
Post #2

практики шума одухотворяющего
**************
Group: Металариец
Posts: 3,068
Releases: 94
From: Хроник дисмЭмбера
On Forums: 3 years 8 months
Thanks: 4103 time(s)
Russian Federation


Ничего себе римляне мочат воинственный блэкодет ископаемого года выпуска без модификаций.
Go to the top of the page
  Insert nick Quick quote
+Quote Post
post Sep 14 2021, 10:54:08
Post #3

Common dweller of hell
**************
Group: Металариец
Posts: 4,005
Releases: 12
From: Dnipro
On Forums: 13 years 2 months
Thanks: 1563 time(s)
Ukraine


Что то в духе итальянцев Death Dies
Go to the top of the page
  Insert nick Quick quote
+Quote Post
post Sep 14 2021, 13:19:50
Post #4

De Mysteriis Dom Sathanas
**************
Group: Металариец
Posts: 4,268
Releases: 63
From: Doom
On Forums: 13 years 2 months
Thanks: 3656 time(s)
Russian Federation


Вокал стремный, на любителя
Go to the top of the page
  Insert nick Quick quote
+Quote Post
post Sep 17 2021, 09:34:05
Post #5

0%Tolerance
**********
Group: Металариец
Posts: 1,314
Releases: 0
On Forums: 9 years 1 week
Thanks: 232 time(s)
Unknown


Кривые и бездарно-тупые ударные, выпяченные на передок к концу альбома выбесили сильно. Кавер на Evol беспонтовый и такой же кривой как ударка.
Go to the top of the page
  Insert nick Quick quote
+Quote Post

Reply to this topicStart new topic
2 User(s) are reading this topic (2 Guests and 0 Anonymous Users)
0 Members:

 



- Lo-Fi Version Support form
Copyrights and abuse reports form
Time is now: 24th September 2021 - 01:40:51