Welcome Guest ( Log In | Register )

> Releases Upload / Добавление релизов

Добавить релиз тут / Click here to add release
Рекомендованные обменники / Recommended file shares

 
Reply to this topicStart new topic
> Cursed Christ - Unholy Ritual Of Death (2020), Black Metal
post Sep 13 2021, 15:24:25
Post #1

Правь статус, ####!616
**************
Group: Металариец
Posts: 6,972
Releases: 5417
From: 55°35’N 38°08’E
On Forums: 13 years 2 months
Thanks: 99395 time(s)
Unknown


(IMG:https://metalarea.org/images/audiocovers/2021_Sep/acov_tid355453_thumb.jpg)

*Artist: Cursed Christ
*Album: Unholy Ritual Of Death
*Year: 2020
*Genre: Black Metal
*Country: Brazil (IMG:https://metalarea.org/forum/style_images/flags/Brazil.png)
*Format: mp3@VBR256kbps
*Size: 68MB

Tracklist:
1. The Wolves Holws Again 04:49
2. Gates of Destiny 03:26
3. Katharsis of the Black Aura 03:16
4. Winds of the Past 04:56
5. In The Morbid Loneliness of the Night 04:01
6. Peste Negra/Black Death 05:57
7. Unholy Ritual of Death 04:34
8. Life Eternal (Mayhem cover) 05:31
******************************
Total playing time: 36:30

(IMG:https://metalarea.org/images/youtube.png)

Extended info
CD, Acta Non Verba Rex (ANV004)


Technical info
(IMG:https://metalarea.org/images/spectrogram/2021_Sep/20539fa416880d61028117fef898e718.png)
Input File: 01 The Wolves Holws Again.mp3
Channels : 2
Sample Rate : 44100
Precision : 16-bit
Duration : 00:04:48.81 = 12736477 samples = 21660.7 CDDA sectors
File Size : 9.58M
Bit Rate : 265k
Sample Encoding: MPEG audio (layer I, II or III)
Comments :
Title=The Wolves Holws Again
Artist=Cursed Christ
Album=Unholy Ritual of Death
Tracknumber=1/8
Year=2020
Genre=Black Metal



Register


Go to the top of the page
  Insert nick Quick quote
+Quote Post

Reply to this topicStart new topic
1 User(s) are reading this topic (1 Guests and 0 Anonymous Users)
0 Members:

 



- Lo-Fi Version Support form
Copyrights and abuse reports form
Time is now: 24th September 2021 - 00:12:16