Welcome Guest ( Log In | Register )

> Releases Upload / Добавление релизов

Добавить релиз тут / Click here to add release
Рекомендованные обменники / Recommended file shares

 
Reply to this topicStart new topic
> Pralaya - Katabasis - Descida Ao Abismo Interior Retificando A Amorfa Chama Da Dissolução [ep] (2021), Black Metal
post Sep 13 2021, 17:35:50
Post #1

Правь статус, ####!616
**************
Group: Металариец
Posts: 6,990
Releases: 5442
From: 55°35’N 38°08’E
On Forums: 13 years 2 months
Thanks: 99663 time(s)
Unknown


(IMG:https://metalarea.org/images/audiocovers/2021_Sep/acov_tid355454_thumb.jpg)

*Artist: Pralaya
*Album: Katabasis - Descida Ao Abismo Interior Retificando A Amorfa Chama Da Dissolução [ep]
*Year: 2021
*Genre: Black Metal
*Country: Brazil (IMG:https://metalarea.org/forum/style_images/flags/Brazil.png)
*Format: mp3@VBR277kbps
*Size: 61MB

Tracklist:
1.Summa Lotus Rubrae 10:32
2.Apostasia da Carne 08:51
3.Exaltação da Negra Kundalini 09:27
******************************
Total playing time: 28:50





Extended info
CD, Black Hearts Records (BLACK051)


Technical info
(IMG:https://metalarea.org/images/spectrogram/2021_Sep/3073055014ce85b00b598d08d124e845.png)
Input File: 01 Summa Lotus Rubrae.mp3
Channels : 2
Sample Rate : 44100
Precision : 16-bit
Duration : 00:10:32.03 = 27872611 samples = 47402.4 CDDA sectors
File Size : 22.3M
Bit Rate : 282k
Sample Encoding: MPEG audio (layer I, II or III)
Comments :
Title=Summa Lotus Rubrae
Artist=Pralaya
Album=Katabasis
Tracknumber=1/3
Year=2021
Genre=Black Metal



Register


Go to the top of the page
  Insert nick Quick quote
+Quote Post

Reply to this topicStart new topic
2 User(s) are reading this topic (2 Guests and 0 Anonymous Users)
0 Members:

 



- Lo-Fi Version Support form
Copyrights and abuse reports form
Time is now: 25th September 2021 - 14:33:06