Welcome Guest ( Log In | Register )

> Within Nostalgia - Conjuring A New Reality (2019), Post-Black Metal
post Sep 13 2021, 18:05:50
Post #1

Семь Литров
*******
Group: Металариец
Posts: 720
Releases: 148
On Forums: 2 years 6 months
Thanks: 2848 time(s)
Russian Federation


(IMG:https://metalarea.org/images/audiocovers/2021_Sep/acov_tid355455_thumb.jpg)

*Artist: Within Nostalgia
*Album: Conjuring A New Reality
*Year: 2019
*Genre: Post-Black Metal
*Country: Canada (IMG:https://metalarea.org/forum/style_images/flags/Canada.png)
*Format: mp3@CBR320kbps
*Size: 91MB

Tracklist:
1. Heart in the Eye of the Skull 08:53
2. Air of Deceit 06:50
3. Code of the Common 06:49
4. Death Lifes' Lover 05:01
5. Soul Mirror 06:00
6. Lost in Aversion 06:34
******************************
Total playing time: 40:07





Technical info
(IMG:https://metalarea.org/images/spectrogram/2021_Sep/2b11479a932a2c87c5c8c957312b25da.png)
Input File: 02 - Air of Deceit.mp3
Channels : 2
Sample Rate : 44100
Precision : 16-bit
Duration : 00:06:50.77 = 18115045 samples = 30807.9 CDDA sectors
File Size : 16.6M
Bit Rate : 324k
Sample Encoding: MPEG audio (layer I, II or III)
Comments :
Title=Air of Deceit
Artist=Within Nostalgia
Album=Conjuring a New Reality
Tracknumber=2
Year=2019
Genre=Post-Black Metal



Register


Go to the top of the page
  Insert nick Quick quote
+Quote Post
 
Start new topic
Replies (1 - 3)
post Sep 14 2021, 07:45:08
Post #2

Четыре Литра
****
Group: Металариец
Posts: 324
Releases: 0
From: минск сити
On Forums: 12 years 5 months
Thanks: 168 time(s)
Belarus


Вокал тут всё портит. Не её это - скримить.
Go to the top of the page
  Insert nick Quick quote
+Quote Post
post Sep 14 2021, 16:34:18
Post #3

Три Литра
***
Group: Завсегдатай
Posts: 213
Releases: 5
On Forums: 3 years 9 months
Thanks: 716 time(s)
Unknown


...In the beginning, Satan created and heavens and the FLAC...

Register


Thanks:
Go to the top of the page
  Insert nick Quick quote
+Quote Post
post Sep 15 2021, 13:17:20
Post #4

Три Литра
***
Group: Завсегдатай
Posts: 276
Releases: 1
From: Brasil - Sao Paulo
On Forums: 1 year 7 months
Thanks: 114 time(s)
Brazil


QUOTE
...In the beginning, Satan created and heavens and the FLAC...

lol (IMG:style_emoticons/default/15.gif)
Go to the top of the page
  Insert nick Quick quote
+Quote Post

Reply to this topicStart new topic
1 User(s) are reading this topic (1 Guests and 0 Anonymous Users)
0 Members:

 



- Lo-Fi Version Support form
Copyrights and abuse reports form
Time is now: 4th December 2021 - 12:36:46