Welcome Guest ( Log In | Register )

> Releases Upload / Добавление релизов

Добавить релиз тут / Click here to add release
Рекомендованные обменники / Recommended file shares

 
Reply to this topicStart new topic
> Svlfvr & Cristo Em Chamas - Tétrica Comunhão Das Abominações [split] (2020), Black/Death Metal | Black Metal
post Sep 13 2021, 18:10:01
Post #1

Правь статус, ####!616
**************
Group: Металариец
Posts: 6,990
Releases: 5442
From: 55°35’N 38°08’E
On Forums: 13 years 2 months
Thanks: 99652 time(s)
Unknown


(IMG:https://metalarea.org/images/audiocovers/2021_Sep/acov_tid355456_thumb.jpg)

*Artist: Svlfvr & Cristo Em Chamas
*Album: Tétrica Comunhão Das Abominações [split]
*Year: 2020
*Genre: Black/Death Metal | Black Metal
*Country: Brazil (IMG:https://metalarea.org/forum/style_images/flags/Brazil.png) | Brazil (IMG:https://metalarea.org/forum/style_images/flags/Brazil.png)
*Format: mp3@VBR224kbps
*Size: 68MB

Tracklist:
Svlfvr:
1.Abyssal Calling 03:07
2.Satanist Pride 03:59
3.Bestial Lust 02:25
4.O.O.O. 02:20
5.Sulfuric Motörmachine 02:47
6.Lilitu 02:45

Cristo em Chamas:
7.Sangrento Massacre Celestial 05:44
8.I.A.M. (Impiedoso Assassino Misantropo) 04:18
9.Escárnio Flamejante ao Rei dos Fracos 05:10
10.Reverenciando a Insígne Era Vulgar 03:49
11.Cravando com a Cruz um Poço de Sangue no Anus do Nazareno Bastardo 02:27
******************************
Total playing time: 38:51



Extended info
CD, Black Hearts Records (BLACK034)


Technical info
(IMG:https://metalarea.org/images/spectrogram/2021_Sep/7a2d5db724eda290d84424fc6ce84aee.png)
Input File: 02 Svlfvr - Satanist Pride.mp3
Channels : 2
Sample Rate : 44100
Precision : 16-bit
Duration : 00:03:59.18 = 10547706 samples = 17938.3 CDDA sectors
File Size : 6.61M
Bit Rate : 221k
Sample Encoding: MPEG audio (layer I, II or III)
Comments :
Title=Satanist Pride
Artist=Svlfvr
Album=Tétrica Comunhão das Abominações
Tracknumber=2/11
Year=2020
Genre=Black Metal



Register


Go to the top of the page
  Insert nick Quick quote
+Quote Post

Reply to this topicStart new topic
1 User(s) are reading this topic (1 Guests and 0 Anonymous Users)
0 Members:

 



- Lo-Fi Version Support form
Copyrights and abuse reports form
Time is now: 25th September 2021 - 13:15:33