Welcome Guest ( Log In | Register )

> Releases Upload / Добавление релизов

Добавить релиз тут / Click here to add release
Рекомендованные обменники / Recommended file shares

> Ancient Empire - Priest Of Stygia (2021), Heavy Metal (D)
post Sep 13 2021, 18:39:11
Post #1

Правь статус, ####!111
**************
Group: Металариец
Posts: 27,412
Releases: 19881
From: Г.Харьков
On Forums: 9 years 4 months
Thanks: 400988 time(s)
Unknown


(IMG:https://metalarea.org/images/audiocovers/2021_Sep/acov_tid355457_thumb.jpg)

*Artist: Ancient Empire
*Album: Priest Of Stygia
*Year: 2021
*Genre: Heavy Metal
*Country: United States (IMG:https://metalarea.org/forum/style_images/flags/United%20States.png)
*Format: mp3@CBR320kbps
*Size: 93MB

Tracklist:
1. Immortal 05:08
2. Beyond the North Wind 04:01
3. Priest of Stygia 05:30
4. Island of the King 06:09
5. Burn Another Liar 04:58
6. Nine Worlds 05:12
7. Every Man My Enemy 04:05
8. Alone Against the Savage Hordes 04:50
******************************
Total playing time: 39:53




Extended info
Steve Pelletier Drums (2012-present)
See also: Hellhound, ex-Angury Athawuld, ex-Forgotten Disciple, ex-Rapid Fire, ex-Rellik, ex-Ikki Crane, ex-Tyton
Rich Pelletier Lyrics (2012-present)
See also: Hellhound, ex-Angury Athawuld, ex-Forgotten Disciple, ex-Rapid Fire
Joe Liszt Vocals, Guitars (lead), Guitars (rhythm), Bass (2012-present)
See also: Hellhound, Shadowkiller, ex-D-Train, ex-Sick Cell, Chain Control, Hard Road, ex-Rocka Rollas



Technical info
(IMG:https://metalarea.org/images/spectrogram/2021_Sep/0ab43976428fab53297f0b36ef8e23bb.png)
Input File: 06 - Nine Worlds.mp3
Channels : 2
Sample Rate : 44100
Precision : 16-bit
Duration : 00:05:12.00 = 13759200 samples = 23400 CDDA sectors
File Size : 12.7M
Bit Rate : 325k
Sample Encoding: MPEG audio (layer I, II or III)
Comments :
Title=Nine Worlds
Artist=Ancient Empire
Album=Priest Of Stygia
Tracknumber=6
Year=2021-09-14
Genre=Heavy Metal
Discnumber=1



Register


Go to the top of the page
  Insert nick Quick quote
+Quote Post
 
Start new topic
Replies (1 - 2)
post Sep 19 2021, 14:20:38
Post #2

Три Литра
***
Group: Завсегдатай
Posts: 241
Releases: 0
From: Kiev
On Forums: 12 years 8 months
Thanks: 51 time(s)
Ukraine


Это что фанатский клип ? Откудово кадры из Conan Exiles ?? (IMG:style_emoticons/default/17.gif)
Go to the top of the page
  Insert nick Quick quote
+Quote Post
post Sep 19 2021, 15:40:05
Post #3

Шесть Литров
******
Group: Металариец
Posts: 596
Releases: 0
From: Лыткарино
On Forums: 2 years 4 months
Thanks: 153 time(s)
Russian Federation


Очень неплохой хэви без попытки что-то изобрести, но крепко. В духе Iron savior


Thanks:
Go to the top of the page
  Insert nick Quick quote
+Quote Post

Reply to this topicStart new topic
2 User(s) are reading this topic (2 Guests and 0 Anonymous Users)
0 Members:

 



- Lo-Fi Version Support form
Copyrights and abuse reports form
Time is now: 24th September 2021 - 00:34:49