Welcome Guest ( Log In | Register )

> Releases Upload / Добавление релизов

Добавить релиз тут / Click here to add release
Рекомендованные обменники / Recommended file shares

 
Reply to this topicStart new topic
> Proagression - Bokasze [ep] (2021), Thrash Metal (D4)
post Sep 13 2021, 21:28:37
Post #1

Правь статус, ####!111
**************
Group: Металариец
Posts: 27,753
Releases: 20186
From: Г.Харьков
On Forums: 9 years 5 months
Thanks: 409158 time(s)
Unknown


(IMG:https://metalarea.org/images/audiocovers/2021_Sep/acov_tid355461_thumb.jpg)

*Artist: Proagression
*Album: Bokasze [ep]
*Year: 2021
*Genre: Thrash Metal
*Country: Argentina (IMG:https://metalarea.org/forum/style_images/flags/Argentina.png)
*Format: mp3@CBR320kbps
*Size: 54MB

Tracklist:
1. No hay suelo donde hacer Pie 04:28
2. Naufragar 04:22
3. Sísifo (La sal) 04:26
4. Mi reflejo / Tus ojos 05:02
5. Hasta despertar 04:28
******************************
Total playing time: 22:46




Extended info
Rodrigo Da Cruz Bass
German Lopez Guitars
Hernán Pérez Vocals
David Carpinella Guitars
Federico de Dios Drums


Technical info
(IMG:https://metalarea.org/images/spectrogram/2021_Sep/3d0c0326312421921497c66dbb4bb548.png)
Input File: PROAGRESSION - Bokasze - 04 Mi reflejo - Tus ojos.mp3
Channels : 2
Sample Rate : 44100
Precision : 16-bit
Duration : 00:05:02.44 = 13337428 samples = 22682.7 CDDA sectors
File Size : 12.3M
Bit Rate : 326k
Sample Encoding: MPEG audio (layer I, II or III)
Comments :
Title=Mi reflejo / Tus ojos
Artist=PROAGRESSION
Album=Bokasze
Tracknumber=4
Year=2021



Register


Go to the top of the page
  Insert nick Quick quote
+Quote Post

Reply to this topicStart new topic
1 User(s) are reading this topic (1 Guests and 0 Anonymous Users)
0 Members:

 



- Lo-Fi Version Support form
Copyrights and abuse reports form
Time is now: 28th October 2021 - 22:56:15