Welcome Guest ( Log In | Register )

> Releases Upload / Добавление релизов

Добавить релиз тут / Click here to add release
Рекомендованные обменники / Recommended file shares

> Stheno - Wardance (2021), Black Metal/Grindcore
post Sep 13 2021, 21:45:47
Post #1

𝕻𝕬𝕹𝕬𝕮𝕰𝕬
*********
Group: Металариец
Posts: 947
Releases: 557
On Forums: 9 years 3 months
Thanks: 10166 time(s)
Unknown


(IMG:http://metalarea.org/images/audiocovers/2021_Sep/acov_tid355462_thumb.jpg)

*Artist: Stheno
*Album: Wardance
*Year: 2021
*Genre: Black Metal/Grindcore
*Country: Greece (IMG:http://metalarea.org/forum/style_images/flags/Greece.png)
*Format: mp3@CBR320kbps
*Size: 60MB

Tracklist:
1. Bestial Batallion 02:25
2. RPG 01:24
3. Deadly Camouflage 03:05
4. Fire! 01:26
5. Snake Eater 03:11
6. Zulu Time 02:36
7. Snafu (This Time... We Die!!) 02:09
8. Dishonored Bodybag 01:23
9. Military Discharge 02:00
10. Bite The Bullet 02:33
11. Bellum Internecinum 02:05
******************************
Total playing time: 24:17




Technical info
(IMG:http://metalarea.org/images/spectrogram/2021_Sep/a07a1e4765c6956448d1edd415c98c50.png)
Input File: 01 - Bestial Batallion.mp3
Channels : 2
Sample Rate : 44100
Precision : 16-bit
Duration : 00:02:25.17 = 6401777 samples = 10887.4 CDDA sectors
File Size : 6.58M
Bit Rate : 363k
Sample Encoding: MPEG audio (layer I, II or III)
Comments :
Title=Bestial Batallion
Artist=Stheno
Album=Wardance
Tracknumber=1
Year=2021
Genre=Black Metal/Grindcore



Register


Go to the top of the page
  Insert nick Quick quote
+Quote Post
 
Start new topic
Replies (1 - 4)
post Sep 14 2021, 07:49:25
Post #2

Три Литра
***
Group: Завсегдатай
Posts: 273
Releases: 0
From: минск сити
On Forums: 12 years 2 months
Thanks: 114 time(s)
Belarus


Почему грайндкор... это получается какой-нибудь Infernal War или Marduk стали с тэгом грайдкор\блэк?
Go to the top of the page
  Insert nick Quick quote
+Quote Post
post Sep 14 2021, 08:47:21
Post #3

Ледоруб
**************
Group: Металариец
Posts: 28,775
Releases: 0
From: Санкт-Петербург
On Forums: 12 years 1 week
Thanks: 10357 time(s)
Russian Federation


Реально как Натрахи?
Go to the top of the page
  Insert nick Quick quote
+Quote Post
post Sep 14 2021, 14:07:39
Post #4

Литр
*
Group: Подсевший
Posts: 55
Releases: 0
From: Zürich
On Forums: 3 months 1 week
Thanks: 13 time(s)
Switzerland


Какие там Натрахи... Просто очень быстрая долба, в которой даже выяснять не хочется, грайнд ли это, или дэт, или блэк, или русский шансон.
Go to the top of the page
  Insert nick Quick quote
+Quote Post
post Sep 14 2021, 15:09:13
Post #5

𝕻𝕬𝕹𝕬𝕮𝕰𝕬
*********
Group: Металариец
Posts: 947
Releases: 557
On Forums: 9 years 3 months
Thanks: 10166 time(s)
Unknown




Thanks:
(1) rominow,
Go to the top of the page
  Insert nick Quick quote
+Quote Post

Reply to this topicStart new topic
1 User(s) are reading this topic (1 Guests and 0 Anonymous Users)
0 Members:

 



- Lo-Fi Version Support form
Copyrights and abuse reports form
Time is now: 24th September 2021 - 01:19:24