Welcome Guest ( Log In | Register )

> Stheno - Liberty Crawls In Waste (2016), Death/Black Metal/Grindcore/Crust
post Sep 13 2021, 22:12:12
Post #1

𝕻𝕬𝕹𝕬𝕮𝕰𝕬
*********
Group: Металариец
Posts: 986
Releases: 585
On Forums: 9 years 6 months
Thanks: 10952 time(s)
Unknown


(IMG:http://metalarea.org/images/audiocovers/2021_Sep/acov_tid355463_thumb.jpg)

*Artist: Stheno
*Album: Liberty Crawls In Waste
*Year: 2016
*Genre: Death/Black Metal/Grindcore/Crust
*Country: Greece (IMG:http://metalarea.org/forum/style_images/flags/Greece.png)
*Format: mp3@CBR320kbps
*Size: 47MB

Tracklist:
1. Intro-Deathbed Confessions 01:17
2. Hail Nothing 02:08
3. Truth To Be A Liar 01:16
4. Let The Mask Slip 01:21
5. Sounds Of Ruined Temples 01:12
6. Under The Black Rain 01:21
7. Into Neverending Struggle 01:39
8. Preachers Of The Fall 01:46
9. Liberty Crawls In Waste 01:22
10. Burn With Pure Light 01:42
11. The Instep Borer 01:00
12. Between Man And God 00:53
13. Poisoned Tears Of The Blessed (Ireland 1972) 02:57
******************************
Total playing time: 19:54



Technical info
(IMG:http://metalarea.org/images/spectrogram/2021_Sep/e64cf80f3cac47bcafc8aa37a31177f7.png)
Input File: 02 - Hail Nothing.mp3
Channels : 2
Sample Rate : 44100
Precision : 16-bit
Duration : 00:02:08.48 = 5665968 samples = 9636 CDDA sectors
File Size : 5.25M
Bit Rate : 327k
Sample Encoding: MPEG audio (layer I, II or III)
Comments :
Title=Hail Nothing
Artist=Stheno
Album=Liberty Crawls In Waste
Tracknumber=2
Year=2016
Genre=Death/Black Metal/Grindcore/Crust



Register


Go to the top of the page
  Insert nick Quick quote
+Quote Post
 
Start new topic
Replies (1 - 1)
post Sep 26 2021, 22:10:13
Post #2

...Only Death Is Real...
**************
Group: Металариец
Posts: 3,005
Releases: 19
On Forums: 11 years 4 months
Thanks: 1995 time(s)
Antarctica


Немного Fukpig напомнило. (IMG:style_emoticons/default/20.gif)
Go to the top of the page
  Insert nick Quick quote
+Quote Post

Reply to this topicStart new topic
1 User(s) are reading this topic (1 Guests and 0 Anonymous Users)
0 Members:

 



- Lo-Fi Version Support form
Copyrights and abuse reports form
Time is now: 4th December 2021 - 23:04:17