Welcome Guest ( Log In | Register )

> Releases Upload / Добавление релизов

Добавить релиз тут / Click here to add release
Рекомендованные обменники / Recommended file shares

> Argesh - Excommunica (2021), Black Metal
post Sep 13 2021, 22:51:08
Post #1

Правь статус, ####!111
**************
Group: Металариец
Posts: 27,412
Releases: 19881
From: Г.Харьков
On Forums: 9 years 4 months
Thanks: 400992 time(s)
Unknown


(IMG:https://metalarea.org/images/audiocovers/2021_Sep/acov_tid355464_thumb.jpg)

*Artist: Argesh
*Album: Excommunica
*Year: 2021
*Genre: Black Metal
*Country: Italy (IMG:https://metalarea.org/forum/style_images/flags/Italy.png)
*Format: mp3@CBR320kbps
*Size: 71MB

Tracklist:
1. Abiura 02:11
2. Suffocate in Oxygen 04:04
3. Source of Miracles 06:30
4. Praelatorum Pedophilia 05:51
5. Apocalypse 20.7-8-9 05:05
6. The Elohim's Mark 07:13
******************************
Total playing time: 30:54




Extended info
Azghal Bass, Keyboards, Orchestrations (2010-present)
See also: Agoraphobia, Astray, Cortexiphan, I Hate When Elevator's Door Open Up and a Raptor Appears in Front of Me, Locus Animæ, ex-Evideon, Insideyes, Regression in Enthropia, ex-Ghostly Aerie Coven (live), ex-Humm (live), ex-Kenòs (live)
HHG Drums, Guitars (2010-present)
See also: Adversam, ex-Bhagavat, ex-Cold Raven (live)
Nezer Guitars (lead) (2010-present)
Rakshasa Guitars (rhythm) (2010-present)


Technical info
(IMG:https://metalarea.org/images/spectrogram/2021_Sep/a71142f5e47a95e5f594222453c4aea9.png)
Input File: 06 - The Elohim\'s Mark.mp3
Channels : 2
Sample Rate : 44100
Precision : 16-bit
Duration : 00:07:13.00 = 19095300 samples = 32475 CDDA sectors
File Size : 17.4M
Bit Rate : 322k
Sample Encoding: MPEG audio (layer I, II or III)
Comments :
Title=The Elohim's Mark
Artist=ArgesH
Album=Excommunica
Tracknumber=6
Year=2021-09-14
Discnumber=1



Register


Go to the top of the page
  Insert nick Quick quote
+Quote Post
 
Start new topic
Replies (1 - 5)
post Sep 14 2021, 07:37:20
Post #2

Три Литра
***
Group: Завсегдатай
Posts: 273
Releases: 0
From: минск сити
On Forums: 12 years 2 months
Thanks: 114 time(s)
Belarus


Неплохо так... бодренько.
Go to the top of the page
  Insert nick Quick quote
+Quote Post
post Sep 14 2021, 08:38:56
Post #3

Литр
*
Group: Подсевший
Posts: 55
Releases: 0
From: Zürich
On Forums: 3 months 1 week
Thanks: 13 time(s)
Switzerland


Непрекращающиеся пластмассовые ударные немного действуют на нервы, но в-общем материал довольно интересный. Последний трек доставил.
Go to the top of the page
  Insert nick Quick quote
+Quote Post
post Sep 14 2021, 10:40:55
Post #4

Common dweller of hell
**************
Group: Металариец
Posts: 4,005
Releases: 12
From: Dnipro
On Forums: 13 years 2 months
Thanks: 1563 time(s)
Ukraine


ЦИТАТА(AnthonyHipHopkins @ Sep 14 2021, 10:38:56) *
Непрекращающиеся пластмассовые ударные

Этого не услышал (IMG:style_emoticons/default/23.gif)
Go to the top of the page
  Insert nick Quick quote
+Quote Post
post Sep 14 2021, 13:12:53
Post #5

De Mysteriis Dom Sathanas
**************
Group: Металариец
Posts: 4,268
Releases: 63
From: Doom
On Forums: 13 years 2 months
Thanks: 3656 time(s)
Russian Federation


За исключением Mysticum стараюсь не скачивать команды с электронными ударными, ну вот не нравится звучание такое и все тут)
Go to the top of the page
  Insert nick Quick quote
+Quote Post
post Sep 14 2021, 16:28:17
Post #6

Два Литра
**
Group: Завсегдатай
Posts: 121
Releases: 3
On Forums: 3 years 6 months
Thanks: 305 time(s)
Unknown


...Indiana Jones and the Kingdom of the Crystal FLAC...

Register


Thanks:
Go to the top of the page
  Insert nick Quick quote
+Quote Post

Reply to this topicStart new topic
2 User(s) are reading this topic (2 Guests and 0 Anonymous Users)
0 Members:

 



- Lo-Fi Version Support form
Copyrights and abuse reports form
Time is now: 24th September 2021 - 01:14:01