Welcome Guest ( Log In | Register )

> Releases Upload / Добавление релизов

Добавить релиз тут / Click here to add release
Рекомендованные обменники / Recommended file shares

> Thundermaker - The Road (2021), Heavy Metal
post Sep 14 2021, 03:25:26
Post #1

Правь статус, ####!111
**************
Group: Металариец
Posts: 27,706
Releases: 20146
From: Г.Харьков
On Forums: 9 years 5 months
Thanks: 407758 time(s)
Unknown


(IMG:https://metalarea.org/images/audiocovers/2021_Sep/acov_tid355465_thumb.jpg)

*Artist: Thundermaker
*Album: The Road
*Year: 2021
*Genre: Heavy Metal
*Country: Sweden (IMG:https://metalarea.org/forum/style_images/flags/Sweden.png)
*Format: mp3@CBR320kbps
*Size: 112MB

Tracklist:
1. The Road (feat. Ronny Munroe)
2. Fire Burns Forever (feat. Tim "Ripper" Owens)
3. Broken Promises (feat. Ronny Munroe)
4. A Twin Flame Journey (feat. Ronny Munroe)
5. Fake (feat. L-G Petrov)
6. Symbiosis (feat. Rille Larsson)
7. The Runner & The Chaser (feat. Tim "Ripper" Owens)
8. Where Sorrow Dwells (feat. Rille Larsson)
9. 1111 (feat. Ronny Munroe)
10. Mi-Ya (Instrumental)
******************************
Total playing time: 48:48



Extended info
Marty Gummesson Bass, Guitars, Keyboards (2013-present)
See also: Marty DeLay, Payback
Eddie Juneskär Drums (2013-2014, 2018-present)
See also: ex-Nymf


Technical info
(IMG:https://metalarea.org/images/spectrogram/2021_Sep/f3cffaf0e1752d08a8f0afc2c2855ad8.png)
Input File: 08 - Where Sorrow Dwells.mp3
Channels : 2
Sample Rate : 44100
Precision : 16-bit
Duration : 00:07:04.07 = 18701575 samples = 31805.4 CDDA sectors
File Size : 17.0M
Bit Rate : 320k
Sample Encoding: MPEG audio (layer I, II or III)
Comments :
Title=Where Sorrow Dwells
Artist=刀椀氀氀攀 䰀愀爀猀猀漀渀
Album=The Road
Tracknumber=8
Year=2021



Register


Go to the top of the page
  Insert nick Quick quote
+Quote Post
 
Start new topic
Replies (1 - 1)
post Sep 14 2021, 17:26:04
Post #2

Слава всем нам,например!
**************
Group: Металариец
Posts: 2,622
Releases: 33
From: Русская Москва
On Forums: 15 years 4 months
Thanks: 1426 time(s)
Russian Federation


Откуда они столько гостей именитых надёргали ? Да ещё и Петров,упокойничек.
Go to the top of the page
  Insert nick Quick quote
+Quote Post

Reply to this topicStart new topic
2 User(s) are reading this topic (2 Guests and 0 Anonymous Users)
0 Members:

 



- Lo-Fi Version Support form
Copyrights and abuse reports form
Time is now: 21st October 2021 - 22:27:44