Welcome Guest ( Log In | Register )

> Releases Upload / Добавление релизов

Добавить релиз тут / Click here to add release
Рекомендованные обменники / Recommended file shares

 
Reply to this topicStart new topic
> Cronopolis - Cronopolis (2021), Power Metal
post Sep 14 2021, 03:38:36
Post #1

Правь статус, ####!111
**************
Group: Металариец
Posts: 27,414
Releases: 19881
From: Г.Харьков
On Forums: 9 years 4 months
Thanks: 400996 time(s)
Unknown


(IMG:https://metalarea.org/images/audiocovers/2021_Sep/acov_tid355466_thumb.jpg)

*Artist: Cronopolis
*Album: Cronopolis
*Year: 2021
*Genre: Power Metal
*Country: Chile (IMG:https://metalarea.org/forum/style_images/flags/Chile.png)
*Format: mp3@CBR320kbps
*Size: 73MB

Tracklist:
1. The Vision
2. Fallen Kingdom
3. Shadows of the Dark Past
4. Survive
5. Reborn
6. Cronopolis
7. United Rock Brothers
******************************
Total playing time: 31:51



Extended info



Technical info
(IMG:https://metalarea.org/images/spectrogram/2021_Sep/e005f55f02cbfb1e97e574d43c4c650b.png)
Input File: 07 - United Rock Brothers.mp3
Channels : 2
Sample Rate : 44100
Precision : 16-bit
Duration : 00:06:07.25 = 16195813 samples = 27543.9 CDDA sectors
File Size : 14.7M
Bit Rate : 320k
Sample Encoding: MPEG audio (layer I, II or III)
Comments :
Title=United Rock Brothers
Artist=Cronopolis
Album=Cronopolis
Tracknumber=7
Year=2021



Register


Go to the top of the page
  Insert nick Quick quote
+Quote Post

Reply to this topicStart new topic
2 User(s) are reading this topic (2 Guests and 0 Anonymous Users)
0 Members:

 



- Lo-Fi Version Support form
Copyrights and abuse reports form
Time is now: 24th September 2021 - 01:35:05