Welcome Guest ( Log In | Register )

> Releases Upload / Добавление релизов

Добавить релиз тут / Click here to add release
Рекомендованные обменники / Recommended file shares

> Bon Scropion - Winds Of The Unseen Sun (2021), Heavy Metal
post Sep 14 2021, 03:47:36
Post #1

Правь статус, ####!111
**************
Group: Металариец
Posts: 27,411
Releases: 19881
From: Г.Харьков
On Forums: 9 years 4 months
Thanks: 400975 time(s)
Unknown


(IMG:https://metalarea.org/images/audiocovers/2021_Sep/acov_tid355467_thumb.jpg)

*Artist: Bon Scropion
*Album: Winds Of The Unseen Sun
*Year: 2021
*Genre: Heavy Metal
*Country: United States (IMG:https://metalarea.org/forum/style_images/flags/United%20States.png)
*Format: mp3@CBR320kbps
*Size: 107MB

Tracklist:
1. Finnegans Wake (Intro) 00:59
2. Scorpion Charmers (In the Village of...) 05:54
3. Battle of the Thaumaturge and the Fire Priests 08:01
4. Sagittarius A* 00:35
5. Europa Rising 03:04
6. Ysengrim 05:12
7. The Anti Paladin 04:22
8. Shroomhenge 06:45
9. Grievous Angel 05:22
10. This Wastoid Chaosisphere 05:36
11. Finnegans Wake (Outro) 00:56
******************************
Total playing time: 46:46




Extended info
Perry Frank Guitars (2016-present)
Brian Withers Guitars, Vocals (2016-present)
Matt Olson Bass (2019-present)
Joe Cummings Drums (2019-present)
See also: House of Lud, Romero, ex-Cosmic Relic, ex-Kadath, ex-Mortal Fear, ex-Orpheus, ex-Screw City Saints


Technical info
(IMG:https://metalarea.org/images/spectrogram/2021_Sep/f18aabb0dc3419e555383e87b30cb2a5.png)
Input File: 08 - Shroomhenge.mp3
Channels : 2
Sample Rate : 44100
Precision : 16-bit
Duration : 00:06:45.18 = 17868614 samples = 30388.8 CDDA sectors
File Size : 16.2M
Bit Rate : 320k
Sample Encoding: MPEG audio (layer I, II or III)
Comments :
Title=Shroomhenge
Artist=Bon Scropion
Album=Winds of the Unseen Sun
Tracknumber=8
Year=2021



Register


Go to the top of the page
  Insert nick Quick quote
+Quote Post
 
Start new topic
Replies (1 - 3)
post Sep 14 2021, 06:14:37
Post #2

hearer & reader
**************
Group: Металариец
Posts: 9,876
Releases: 173
From: Moscow
On Forums: 14 years 2 weeks
Thanks: 11200 time(s)
Russian Federation


NWOBHM с привкусом стоунера, даже нравится.
Несколько блеклый вокал, ну и обложка - жесть.
Go to the top of the page
  Insert nick Quick quote
+Quote Post
post Sep 14 2021, 09:07:57
Post #3

21st Century Schizoid Man
**************
Group: Металариец
Posts: 6,939
Releases: 84
From: Pdmsk
On Forums: 13 years 4 months
Thanks: 5846 time(s)
Russian Federation





и т.д.
Go to the top of the page
  Insert nick Quick quote
+Quote Post
post Sep 14 2021, 16:57:18
Post #4

hearer & reader
**************
Group: Металариец
Posts: 9,876
Releases: 173
From: Moscow
On Forums: 14 years 2 weeks
Thanks: 11200 time(s)
Russian Federation


Register


Thanks:
(1) Olethros,
Go to the top of the page
  Insert nick Quick quote
+Quote Post

Reply to this topicStart new topic
1 User(s) are reading this topic (1 Guests and 0 Anonymous Users)
0 Members:

 



- Lo-Fi Version Support form
Copyrights and abuse reports form
Time is now: 24th September 2021 - 00:06:06