Welcome Guest ( Log In | Register )

> Mortal Disguise - Abstract Dimensions (2021), Progressive Extreme Metal
post Sep 14 2021, 04:26:39
Post #1

Правь статус, ####!111
**************
Group: Металариец
Posts: 27,453
Releases: 19933
From: Г.Харьков
On Forums: 9 years 4 months
Thanks: 402545 time(s)
Unknown


(IMG:https://metalarea.org/images/audiocovers/2021_Sep/acov_tid355468_thumb.jpg)

*Artist: Mortal Disguise
*Album: Abstract Dimensions
*Year: 2021
*Genre: Progressive Extreme Metal
*Country: United States (IMG:https://metalarea.org/forum/style_images/flags/United%20States.png)
*Format: mp3@CBR320kbps
*Size: 88MB

Tracklist:
1. Hagazussa
2. Future Corpse
3. S.I.K.
4. Ceremony of Resistance
5. Abstract Dimensions
6. Whispers from Hell
7. Calamity Host
8. Drop off Point
9. Vast and Forgotten
******************************
Total playing time: 38:14



Extended info
Steve-vocals
Arron-guitar
Rick-lead guitar
Jay-bass
Steve-drums



Technical info
(IMG:https://metalarea.org/images/spectrogram/2021_Sep/c7db12993cbcd14f2ab9b3741e855c5d.png)
Input File: 08 - Drop off Point.mp3
Channels : 2
Sample Rate : 44100
Precision : 16-bit
Duration : 00:06:13.68 = 16479244 samples = 28025.9 CDDA sectors
File Size : 15.0M
Bit Rate : 320k
Sample Encoding: MPEG audio (layer I, II or III)
Comments :
Title=Drop off Point
Artist=Mortal Disguise
Album=Abstract Dimensions
Tracknumber=8
Year=2021



Register


Go to the top of the page
  Insert nick Quick quote
+Quote Post
 
Start new topic
Replies (1 - 1)
post Sep 15 2021, 05:43:14
Post #2

hearer & reader
**************
Group: Металариец
Posts: 9,887
Releases: 175
From: Moscow
On Forums: 14 years 3 weeks
Thanks: 11231 time(s)
Russian Federation


https://music.yandex.ru/album/18021721
Интересно.
Register


Thanks:
(1) Olethros,
Go to the top of the page
  Insert nick Quick quote
+Quote Post

Reply to this topicStart new topic
2 User(s) are reading this topic (2 Guests and 0 Anonymous Users)
0 Members:

 



- Lo-Fi Version Support form
Copyrights and abuse reports form
Time is now: 29th September 2021 - 02:09:55