Welcome Guest ( Log In | Register )

 
Reply to this topicStart new topic
> Tenval - Tenval (2015), Brutal Death Metal
post Sep 14 2021, 06:26:50
Post #1

Пять Литров
*****
Group: Металариец
Posts: 429
Releases: 81
On Forums: 2 years 4 months
Thanks: 1306 time(s)
Russian Federation


(IMG:https://metalarea.org/images/audiocovers/2021_Sep/acov_tid355469_thumb.jpg)

*Artist: Tenval
*Album: Tenval
*Year: 2015
*Genre: Brutal Death Metal
*Country: France (IMG:https://metalarea.org/forum/style_images/flags/France.png)
*Format: mp3@CBR320kbps
*Size: 51MB

Tracklist:
1. Fulupic an toer 03:25
2. Feunteun an Ankou 03:13
3. Ar bern mein 04:37
4. Tantad 02:31
5. Sparlou moc'h 02:30
6. Taer 03:17
7. La Veillée de Lon 03:22
8. La vallée infernale 03:10
******************************
Total playing time: 26:05





Technical info
(IMG:https://metalarea.org/images/spectrogram/2021_Sep/b70977ca994c719842f3805ef18fd85a.png)
Input File: 08 La Vallée Infernale.mp3
Channels : 2
Sample Rate : 44100
Precision : 16-bit
Duration : 00:03:10.60 = 8405592 samples = 14295.2 CDDA sectors
File Size : 7.73M
Bit Rate : 324k
Sample Encoding: MPEG audio (layer I, II or III)
Comments :
Title=La Vallee Infernale
Artist=Tenval
Album=Tenval
Tracknumber=8
Year=2015
Genre=Brutal Death Metal



Register


Thanks:
Go to the top of the page
  Insert nick Quick quote
+Quote Post

Reply to this topicStart new topic
1 User(s) are reading this topic (1 Guests and 0 Anonymous Users)
0 Members:

 



- Lo-Fi Version Support form
Copyrights and abuse reports form
Time is now: 29th September 2021 - 02:31:38