Welcome Guest ( Log In | Register )

> Releases Upload / Добавление релизов

Добавить релиз тут / Click here to add release
Рекомендованные обменники / Recommended file shares

> In Extenso - Холодная Заря [ep] (2014), Symphonic Gothic Metal
post Sep 14 2021, 08:31:37
Post #1

Пять Литров
*****
Group: Металариец
Posts: 402
Releases: 73
On Forums: 2 years 4 months
Thanks: 1160 time(s)
Russian Federation


(IMG:https://metalarea.org/images/audiocovers/2021_Sep/acov_tid355470_thumb.jpg)

*Artist: In Extenso
*Album: Холодная Заря [ep]
*Year: 2014
*Genre: Symphonic Gothic Metal
*Country: Russian Federation (IMG:https://metalarea.org/forum/style_images/flags/Russian%20Federation.png)
*Format: mp3@CBR320kbps
*Size: 55MB

Tracklist:
1. Зову 03:56
2. Оборотень 03:03
3. Холодная заря 05:32
4. Бродить во тьме 03:53
5. Дверь в никуда 04:42
6. Бяки-буки (м/ф "Бременские музыканты") 02:50
******************************
Total playing time: 23:56

(IMG:https://metalarea.org/images/youtube.png)



Technical info
(IMG:https://metalarea.org/images/spectrogram/2021_Sep/7ed3bd9fd4def180810c2e3e8738915f.png)
Input File: 01. Зову.mp3
Channels : 2
Sample Rate : 44100
Precision : 16-bit
Duration : 00:03:56.76 = 10441292 samples = 17757.3 CDDA sectors
File Size : 9.54M
Bit Rate : 322k
Sample Encoding: MPEG audio (layer I, II or III)
Comments :
Title=Зову
Artist=In Extenso
Album=Холодная заря
Tracknumber=01/06
Year=2014
Genre=Gothic Metal



Register


Go to the top of the page
  Insert nick Quick quote
+Quote Post
 
Start new topic
Replies (1 - 4)
post Sep 15 2021, 05:31:36
Post #2

hearer & reader
**************
Group: Металариец
Posts: 9,876
Releases: 173
From: Moscow
On Forums: 14 years 2 weeks
Thanks: 11200 time(s)
Russian Federation



(IMG:style_emoticons/default/nyyy.gif)


Thanks:
(1) Ice Gnoll,
Go to the top of the page
  Insert nick Quick quote
+Quote Post
post Sep 15 2021, 07:09:27
Post #3

Восемь Литров
********
Group: Металариец
Posts: 832
Releases: 36
From: Ивантеевка, Московская область
On Forums: 13 years 9 months
Thanks: 725 time(s)
Russian Federation


Осилил только клип от AHBAnep, Кстати по музыке (в клипе) лично у меня претензий нет, можно было бы и целиком заценить. Только тембр голоса девочки меня люто раздражал (это, конечно, дело вкуса). Ну и в клипе она выглядит так, как-будто сбежала из тренажерного зала на 10 минут, для съемок. Смешно и по-дурацки выглядит.
Go to the top of the page
  Insert nick Quick quote
+Quote Post
post Sep 15 2021, 07:34:35
Post #4

хаос и порядок
*****
Group: Металариец
Posts: 401
Releases: 0
From: Запорожье
On Forums: 11 years 4 months
Thanks: 194 time(s)
Ukraine


QUOTE(Ice Gnoll @ 15th September 2021 - 09:09:27) *
Ну и в клипе она выглядит так, как-будто сбежала из тренажерного зала на 10 минут, для съемок. Смешно и по-дурацки выглядит.

Рекламирует трусы, носки да футболочки из Ашана.
Go to the top of the page
  Insert nick Quick quote
+Quote Post
post Sep 16 2021, 01:09:57
Post #5

Четыре Литра
****
Group: Металариец
Posts: 391
Releases: 0
On Forums: 12 years 8 months
Thanks: 299 time(s)
Brazil


Надежда, что по ошибке перепутают с In Extremo?


Thanks:
Go to the top of the page
  Insert nick Quick quote
+Quote Post

Reply to this topicStart new topic
2 User(s) are reading this topic (2 Guests and 0 Anonymous Users)
0 Members:

 



- Lo-Fi Version Support form
Copyrights and abuse reports form
Time is now: 24th September 2021 - 01:27:35