Welcome Guest ( Log In | Register )

 
Reply to this topicStart new topic
> Infinite Fight - Vast Power [ep] (2017), Atmospheric/Deathcore/Progressive
post Sep 14 2021, 08:42:11
Post #1

Пять Литров
*****
Group: Металариец
Posts: 429
Releases: 81
On Forums: 2 years 4 months
Thanks: 1307 time(s)
Russian Federation


(IMG:https://metalarea.org/images/audiocovers/2021_Sep/acov_tid355471_thumb.jpg)

*Artist: Infinite Fight
*Album: Vast Power [ep]
*Year: 2017
*Genre: Atmospheric/Deathcore/Progressive
*Country: United States (IMG:https://metalarea.org/forum/style_images/flags/United%20States.png)
*Format: mp3@CBR320kbps
*Size: 46MB

Tracklist:
1. Signal (Intro) 01:57
2. The Torch of Night 05:12
3. Global Supremacy 04:04
4. Free of Remorse 05:01
5.Serenity Search 04:21
******************************
Total playing time: 20:35



Extended info
Online project featuring members of Eternal Void and Sever The King


Technical info
(IMG:https://metalarea.org/images/spectrogram/2021_Sep/0f899dfe625fde65e4e25b38b3d4d196.png)
Input File: 05. Serenity Search.mp3
Channels : 2
Sample Rate : 48000
Precision : 16-bit
Duration : 00:04:21.65 = 12559248 samples ~ 19623.8 CDDA sectors
File Size : 10.7M
Bit Rate : 327k
Sample Encoding: MPEG audio (layer I, II or III)
Comments :
Title=Serenity Search
Artist=Infinite Fight
Album=Vast Power (EP)
Tracknumber=05
Year=2017
Genre=Atmospheric Deathcore
Discnumber=1



Register


Thanks:
Go to the top of the page
  Insert nick Quick quote
+Quote Post

Reply to this topicStart new topic
2 User(s) are reading this topic (2 Guests and 0 Anonymous Users)
0 Members:

 



- Lo-Fi Version Support form
Copyrights and abuse reports form
Time is now: 29th September 2021 - 04:02:39