Welcome Guest ( Log In | Register )

> In Cold - Волчий Дождь (2018), Melodic/Power Metal
post Sep 14 2021, 08:58:49
Post #1

Пять Литров
*****
Group: Металариец
Posts: 429
Releases: 81
On Forums: 2 years 4 months
Thanks: 1306 time(s)
Russian Federation


(IMG:https://metalarea.org/images/audiocovers/2021_Sep/acov_tid355472_thumb.jpg)

*Artist: In Cold
*Album: Волчий Дождь
*Year: 2018
*Genre: Melodic/Power Metal
*Country: Russian Federation (IMG:https://metalarea.org/forum/style_images/flags/Russian%20Federation.png)
*Format: mp3@CBR320kbps
*Size: 84MB

Tracklist:
1. Оно 04:54
2. Волчий дождь 06:11
3. Роза 03:23
4. Зов китов 05:39
5. Я поверю 04:10
6. Твоё имя 05:01
7. Я здесь 04:09
8. Тысяча чертей! 03:28
******************************
Total playing time: 36:55

Preview 1



Technical info
(IMG:https://metalarea.org/images/spectrogram/2021_Sep/7b0bb7e44c03f4fb151568a804879bed.png)
Input File: 1-Оно.mp3
Channels : 2
Sample Rate : 44100
Precision : 16-bit
Duration : 00:04:54.63 = 12993095 samples = 22097.1 CDDA sectors
File Size : 11.8M
Bit Rate : 320k
Sample Encoding: MPEG audio (layer I, II or III)
Comments :
Title=Оно
Artist=In Cold
Album=Волчий Дождь
Tracknumber=1
Year=2018



Register


Thanks:
Go to the top of the page
  Insert nick Quick quote
+Quote Post
 
Start new topic
Replies (1 - 1)
post Sep 15 2021, 05:35:42
Post #2

hearer & reader
**************
Group: Металариец
Posts: 9,887
Releases: 175
From: Moscow
On Forums: 14 years 3 weeks
Thanks: 11231 time(s)
Russian Federation


https://music.yandex.ru/album/5352393
1. Оно
2. Оно
3. Оно
и т.д., но старались.
Go to the top of the page
  Insert nick Quick quote
+Quote Post

Reply to this topicStart new topic
1 User(s) are reading this topic (1 Guests and 0 Anonymous Users)
0 Members:

 



- Lo-Fi Version Support form
Copyrights and abuse reports form
Time is now: 29th September 2021 - 02:05:15