Welcome Guest ( Log In | Register )

 
Reply to this topicStart new topic
> Vintlechkeit - Til Dodens Vinter Alltid... [demo] (2021), Atmospheric Ambient Raw Black Metal (D)
post Sep 14 2021, 12:09:53
Post #1

 
********
Group: Металариец
Posts: 885
Releases: 114
On Forums: 13 years 6 months
Thanks: 2859 time(s)
Russian Federation


(IMG:http://metalarea.org/images/audiocovers/2021_Sep/acov_tid355473_thumb.jpg)

*Artist: Vintlechkeit
*Album: Til Dodens Vinter Alltid... [demo]
*Year: 2021
*Genre: Atmospheric Ambient Raw Black Metal
*Country: Norway (IMG:http://metalarea.org/forum/style_images/flags/Norway.png)
*Format: mp3@CBR320kbps
*Size: 81MB

Tracklist:
1. Til Dodens Vinter Alltid...
2. Snø Blindet Meg Med Sannhet...
******************************
Total playing time: 34:37



Technical info
(IMG:http://metalarea.org/images/spectrogram/2021_Sep/6794ce692aaf484e8e275a95db38abd2.png)
Input File: 01. Til Dodens Vinter Alltid.mp3
Channels : 2
Sample Rate : 44100
Precision : 16-bit
Duration : 00:21:55.42 = 58010066 samples = 98656.6 CDDA sectors
File Size : 52.7M
Bit Rate : 320k
Sample Encoding: MPEG audio (layer I, II or III)
Comments :
Title=Til Dodens Vinter Alltid...
Artist=Vintlechkeit
Album=Til Dodens Vinter Alltid...
Tracknumber=1
Year=2021
Genre=Atmospheric Ambient Raw Black Metal



Register


Go to the top of the page
  Insert nick Quick quote
+Quote Post

Reply to this topicStart new topic
1 User(s) are reading this topic (1 Guests and 0 Anonymous Users)
0 Members:

 



- Lo-Fi Version Support form
Copyrights and abuse reports form
Time is now: 23rd October 2021 - 22:19:07