Welcome Guest ( Log In | Register )

> Releases Upload / Добавление релизов

Добавить релиз тут / Click here to add release
Рекомендованные обменники / Recommended file shares

 
Reply to this topicStart new topic
> Sturmfolk & Ancient Wolf - From The Ancient Past Of The Elder Lands [split] (2020), Pagan Black Metal | Pagan Black Metal
post Sep 14 2021, 16:18:13
Post #1

Правь статус, ####!616
**************
Group: Металариец
Posts: 7,028
Releases: 5478
From: 55°35’N 38°08’E
On Forums: 13 years 2 months
Thanks: 100341 time(s)
Unknown


(IMG:https://metalarea.org/images/audiocovers/2021_Sep/acov_tid355474_thumb.jpg)

*Artist: Sturmfolk & Ancient Wolf
*Album: From The Ancient Past Of The Elder Lands [split]
*Year: 2020
*Genre: Pagan Black Metal | Pagan Black Metal
*Country: Germany (IMG:https://metalarea.org/forum/style_images/flags/Germany.png) | Mexico (IMG:https://metalarea.org/forum/style_images/flags/Mexico.png)
*Format: mp3@VBR245kbps
*Size: 89MB

Tracklist:
Sturmfolk:
1.Schattenwald 08:45
2.Traenen eines Baumes 07:46
3.Ewiger Hass 06:59
4.Instrumental 04:07

Ancient Wolf:
5.Fatherland 04:21
6.Oath of Wolves 03:28
7.From the Astral Lands 06:22
8.Sölbjörg (Burzum Tribute) 06:26
******************************
Total playing time: 48:14


(IMG:https://metalarea.org/images/youtube.png)
(IMG:https://metalarea.org/images/youtube.png)

Extended info
CD, Azermedoth Records


Technical info
(IMG:https://metalarea.org/images/spectrogram/2021_Sep/86629a5f6db63a3d9177e8b488981773.png)
Input File: 01 Sturmfolk - Schattenwald.mp3
Channels : 2
Sample Rate : 44100
Precision : 16-bit
Duration : 00:08:45.17 = 23159777 samples = 39387.4 CDDA sectors
File Size : 16.4M
Bit Rate : 250k
Sample Encoding: MPEG audio (layer I, II or III)
Comments :
Title=Schattenwald
Artist=Sturmfolk
Album=From the Ancient Past of the Elder Lands
Tracknumber=1/8
Year=2020
Genre=Black Metal



Register


Go to the top of the page
  Insert nick Quick quote
+Quote Post

Reply to this topicStart new topic
1 User(s) are reading this topic (1 Guests and 0 Anonymous Users)
0 Members:

 



- Lo-Fi Version Support form
Copyrights and abuse reports form
Time is now: 29th September 2021 - 02:38:19