Welcome Guest ( Log In | Register )

> Venymysgourvleydh - The Crooked Wheel Of Eternity [demo] (2021), Black Metal
post Sep 14 2021, 16:25:48
Post #1

Правь статус, 616
**************
Group: Металариец
Posts: 7,221
Releases: 5651
From: 55°35’N 38°08’E
On Forums: 13 years 4 months
Thanks: 104088 time(s)
Unknown


(IMG:https://metalarea.org/images/audiocovers/2021_Sep/acov_tid355475_thumb.jpg)

*Artist: Venymysgourvleydh
*Album: The Crooked Wheel Of Eternity [demo]
*Year: 2021
*Genre: Black Metal
*Country: United Kingdom (IMG:https://metalarea.org/forum/style_images/flags/United%20Kingdom.png)
*Format: mp3@CBR320kbps
*Size: 56MB

Tracklist:
1.The Crooked Wheel of Eternity 24:11
******************************
Total playing time: 24:11



Technical info
(IMG:https://metalarea.org/images/spectrogram/2021_Sep/4aa880101f0bc81fb9b66d991764facf.png)
Input File: 01 The Crooked Wheel of Eternity.mp3
Channels : 2
Sample Rate : 44100
Precision : 16-bit
Duration : 00:24:11.97 = 64031833 samples = 108898 CDDA sectors
File Size : 58.2M
Bit Rate : 321k
Sample Encoding: MPEG audio (layer I, II or III)
Comments :
Title=The Crooked Wheel of Eternity
Artist=Venymysgourvleydh
Album=The Crooked Wheel of Eternity
Tracknumber=1
Year=2021
Genre=Black Metal



Register


Go to the top of the page
  Insert nick Quick quote
+Quote Post
 
Start new topic
Replies (1 - 1)
post Sep 15 2021, 13:33:18
Post #2

Правь статус, ####!111
**************
Group: Металариец
Posts: 2,745
Releases: 12
On Forums: 14 years 4 months
Thanks: 1580 time(s)
Russian Federation


Как ни странно, но очень годно.
Go to the top of the page
  Insert nick Quick quote
+Quote Post

Reply to this topicStart new topic
2 User(s) are reading this topic (2 Guests and 0 Anonymous Users)
0 Members:

 



- Lo-Fi Version Support form
Copyrights and abuse reports form
Time is now: 3rd December 2021 - 06:05:37