Welcome Guest ( Log In | Register )

> Releases Upload / Добавление релизов

Добавить релиз тут / Click here to add release
Рекомендованные обменники / Recommended file shares

 
Reply to this topicStart new topic
> Necrogosto - Ancestral Bestiality [ep] (2020), Black/Death/Thrash Metal
post Sep 14 2021, 16:53:00
Post #1

Правь статус, ####!616
**************
Group: Металариец
Posts: 6,972
Releases: 5417
From: 55°35’N 38°08’E
On Forums: 13 years 2 months
Thanks: 99395 time(s)
Unknown


(IMG:https://metalarea.org/images/audiocovers/2021_Sep/acov_tid355476_thumb.jpg)

*Artist: Necrogosto
*Album: Ancestral Bestiality [ep]
*Year: 2020
*Genre: Black/Death/Thrash Metal
*Country: Brazil (IMG:https://metalarea.org/forum/style_images/flags/Brazil.png)
*Format: mp3@VBR227kbps
*Size: 42MB

Tracklist:
1.Ancient Demoniacal Proclamation (Intro) 01:42
2.Serpent of 1000 Eyes 01:54
3.Baphometic Noisy Cult 02:48
4.Perversions at Necrotemple 04:53
5.Ceremonial Rites for Missionary Desecration (Interlude) 01:00
6.Intoxication and Ecstasy 04:00
7.Marching to Oblivion 03:56
8.Transcending to Uku Pacha (Outro) 01:40
******************************
Total playing time: 21:53





(IMG:https://metalarea.org/images/youtube.png)

Extended info
CD, Black Hearts Records (BLACK028)


Technical info
(IMG:https://metalarea.org/images/spectrogram/2021_Sep/d131d8db3926f72aaca677b45a3c2835.png)
Input File: 02 Serpent of 1000 Eyes.mp3
Channels : 2
Sample Rate : 44100
Precision : 16-bit
Duration : 00:01:54.16 = 5034236 samples = 8561.63 CDDA sectors
File Size : 3.57M
Bit Rate : 251k
Sample Encoding: MPEG audio (layer I, II or III)
Comments :
Title=Serpent of 1000 Eyes
Artist=Necrogosto
Album=Ancestral Bestiality
Tracknumber=2/8
Year=2020
Genre=Black Metal



Register


Go to the top of the page
  Insert nick Quick quote
+Quote Post

Reply to this topicStart new topic
2 User(s) are reading this topic (2 Guests and 0 Anonymous Users)
0 Members:

 



- Lo-Fi Version Support form
Copyrights and abuse reports form
Time is now: 24th September 2021 - 00:35:41