Welcome Guest ( Log In | Register )

> Releases Upload / Добавление релизов

Добавить релиз тут / Click here to add release
Рекомендованные обменники / Recommended file shares

 
Reply to this topicStart new topic
> Decay - Thornmenthorn (2021), Melodic Black/Death/Thrash Metal (D23)
post Sep 14 2021, 18:34:17
Post #1

Правь статус, ####!111
**************
Group: Металариец
Posts: 27,453
Releases: 19933
From: Г.Харьков
On Forums: 9 years 4 months
Thanks: 402551 time(s)
Unknown


(IMG:https://metalarea.org/images/audiocovers/2021_Sep/acov_tid355479_thumb.jpg)

*Artist: Decay
*Album: Thornmenthorn
*Year: 2021
*Genre: Melodic Black/Death/Thrash Metal
*Country: Romania (IMG:https://metalarea.org/forum/style_images/flags/Romania.png)
*Format: mp3@CBR320kbps
*Size: 89MB

Tracklist:
1. Mork Skog (intro) 02:09
2. To Survive the Time 06:55
3. Evilution 03:49
4. For a Seizable Reality 04:27
5. Baalanar 04:03
6. Concentrated Incarnation of Brutal Aggression 04:36
7. Vortex of Thoughts 03:42
8. Decay 03:27
9. Eat Your Rights 05:41
******************************
Total playing time: 38:49




Extended info
Goat Vocals
Zoltan Gergely Guitars, Drums
Franky Bass
Robi and Anti Guitars


Technical info
(IMG:https://metalarea.org/images/spectrogram/2021_Sep/ff6671939786a38dabf8164b14f8f0d9.png)
Input File: 09 Eat Your Rights.mp3
Channels : 2
Sample Rate : 44100
Precision : 16-bit
Duration : 00:05:41.57 = 15063193 samples = 25617.7 CDDA sectors
File Size : 13.7M
Bit Rate : 320k
Sample Encoding: MPEG audio (layer I, II or III)
Comments :
Title=Eat Your Rights
Artist=Decay
Album=ThORnMENThORn
Tracknumber=9
Year=2021
Genre=Metal



Register


Go to the top of the page
  Insert nick Quick quote
+Quote Post

Reply to this topicStart new topic
1 User(s) are reading this topic (1 Guests and 0 Anonymous Users)
0 Members:

 



- Lo-Fi Version Support form
Copyrights and abuse reports form
Time is now: 29th September 2021 - 03:37:21