Welcome Guest ( Log In | Register )

> Releases Upload / Добавление релизов

Добавить релиз тут / Click here to add release
Рекомендованные обменники / Recommended file shares

 
Reply to this topicStart new topic
> Nocturnal Sacrifice - Paths Of Unholy Consagration (2021), Black Metal
post Sep 14 2021, 18:44:24
Post #1

Правь статус, ####!111
**************
Group: Металариец
Posts: 27,453
Releases: 19933
From: Г.Харьков
On Forums: 9 years 4 months
Thanks: 402548 time(s)
Unknown


(IMG:https://metalarea.org/images/audiocovers/2021_Sep/acov_tid355480_thumb.jpg)

*Artist: Nocturnal Sacrifice
*Album: Paths Of Unholy Consagration
*Year: 2021
*Genre: Black Metal
*Country: Mexico (IMG:https://metalarea.org/forum/style_images/flags/Mexico.png)
*Format: mp3@CBR320kbps
*Size: 121MB

Tracklist:
1. Miccacuicatl 08:11
2. Promise of Destruction 05:22
3. Cempolihui 06:00
4. Egoism as Universe Idolatry 05:21
5. Bones and Dust 06:18
6. True Sovereign of a Chaotic Cosmos 04:59
7. Speaking to the Void 07:25
8. While Love Throws Me into the Abyss 08:49
******************************
Total playing time: 52:25




Extended info
Sorath Bass, Chorus
Tyrant Wolf Guitars, Vocals
Mephisto Drums


Technical info
(IMG:https://metalarea.org/images/spectrogram/2021_Sep/7b05a0c0a470e31695b73649c6045f90.png)
Input File: 07 - Speaking to the Void.mp3
Channels : 2
Sample Rate : 44100
Precision : 16-bit
Duration : 00:07:25.00 = 19624500 samples = 33375 CDDA sectors
File Size : 18.0M
Bit Rate : 323k
Sample Encoding: MPEG audio (layer I, II or III)
Comments :
Title=Speaking to the Void
Artist=Nocturnal Sacrifice
Album=Paths of Unholy Consagration
Tracknumber=7
Year=2021
Discnumber=1



Register


Go to the top of the page
  Insert nick Quick quote
+Quote Post

Reply to this topicStart new topic
1 User(s) are reading this topic (1 Guests and 0 Anonymous Users)
0 Members:

 



- Lo-Fi Version Support form
Copyrights and abuse reports form
Time is now: 29th September 2021 - 02:55:20