Welcome Guest ( Log In | Register )

> Releases Upload / Добавление релизов

Добавить релиз тут / Click here to add release
Рекомендованные обменники / Recommended file shares

> Metalsteel - Forsaken By The Gods (2021), Heavy Metal (D6)
post Sep 14 2021, 18:57:48
Post #1

Правь статус, ####!111
**************
Group: Металариец
Posts: 27,412
Releases: 19881
From: Г.Харьков
On Forums: 9 years 4 months
Thanks: 400988 time(s)
Unknown


(IMG:https://metalarea.org/images/audiocovers/2021_Sep/acov_tid355481_thumb.jpg)

*Artist: Metalsteel
*Album: Forsaken By The Gods
*Year: 2021
*Genre: Heavy Metal
*Country: Slovenia (IMG:https://metalarea.org/forum/style_images/flags/Slovenia.png)
*Format: mp3@CBR320kbps
*Size: 96MB

Tracklist:
01. Forsaken by the Gods
02. Dying Out
03. For the Future
04. Drop by Drop
05. Death=Life
06. Becoming Human
07. Fallen Brother
08. Into the Rivers Divine
09. The Passage of Time
10. Farewell
******************************
Total playing time: 42:00




Extended info
Matej Sušnik Bass
Beny Kic Guitars, Vocals
Rock Tomšič Guitars
Daša Trampuš Drums


Technical info
(IMG:https://metalarea.org/images/spectrogram/2021_Sep/72e35f13b11ae2597b98e04f40564673.png)
Input File: 07 - Metalsteel - Fallen Brother.mp3
Channels : 2
Sample Rate : 44100
Precision : 16-bit
Duration : 00:05:16.73 = 13967749 samples = 23754.7 CDDA sectors
File Size : 12.7M
Bit Rate : 320k
Sample Encoding: MPEG audio (layer I, II or III)
Comments :
Title=Fallen Brother
Artist=Metalsteel
Album=Forsaken by the Gods
Tracknumber=7/10
Year=2021
Discnumber=1/1



Register


Go to the top of the page
  Insert nick Quick quote
+Quote Post
 
Start new topic
Replies (1 - 2)
post Sep 15 2021, 05:16:28
Post #2

? ? ? ? ? ? ? ?
*******
Group: Металариец
Posts: 727
Releases: 23
On Forums: 14 years 7 months
Thanks: 577 time(s)
Russian Federation


ЦИТАТА
Metalsteel

Металлическая сталь? Изобретательно.


Thanks:
(1) DTGB,
Go to the top of the page
  Insert nick Quick quote
+Quote Post
post Sep 19 2021, 14:17:39
Post #3

Перевозчик
**************
Group: Металариец
Posts: 3,323
Releases: 0
On Forums: 13 years 2 months
Thanks: 743 time(s)
Russian Federation


Зато девочка на барабанах. (IMG:style_emoticons/default/smile1.gif)
Go to the top of the page
  Insert nick Quick quote
+Quote Post

Reply to this topicStart new topic
2 User(s) are reading this topic (2 Guests and 0 Anonymous Users)
0 Members:

 



- Lo-Fi Version Support form
Copyrights and abuse reports form
Time is now: 24th September 2021 - 00:43:15