Welcome Guest ( Log In | Register )

> Releases Upload / Добавление релизов

Добавить релиз тут / Click here to add release
Рекомендованные обменники / Recommended file shares

 
Reply to this topicStart new topic
> Sickmorgue - Festering In A Cesspool Of Human Flesh (2021), Brutal Death Metal (D4)
post Sep 14 2021, 19:12:43
Post #1

Правь статус, ####!111
**************
Group: Металариец
Posts: 27,412
Releases: 19881
From: Г.Харьков
On Forums: 9 years 4 months
Thanks: 400990 time(s)
Unknown


(IMG:https://metalarea.org/images/audiocovers/2021_Sep/acov_tid355482_thumb.jpg)

*Artist: Sickmorgue
*Album: Festering In A Cesspool Of Human Flesh
*Year: 2021
*Genre: Brutal Death Metal
*Country: Mexico (IMG:https://metalarea.org/forum/style_images/flags/Mexico.png)
*Format: mp3@CBR320kbps
*Size: 83MB

Tracklist:
1. Sinister Bells
2. Festering in a Cesspool of Human Flesh (Ft. Damian DrDeath Of Goreatorium)
3. Cyber Mutant Predator Humiliated
4. Caguama Slam Family
5. Butchering Bodies In The Fields
6. Invaders of Humanity Created
in a Dark Morgue
7. Riffs Full Of Zeroes
8. Cavernous Noises Inside His Head
9. Death From The North
10. Assasination At Mass
11. 5 Crazy Festering Imbecils
12. Take The Machete (Ft. Mauro Ramirez Of Visceral Decay) (Bonus Track)
******************************
Total playing time: 35:13




Extended info
Edu Drums (session)
See also: Massive Bleeding, Putrefacto Hedor Cadaverico, The Quantum Possession, ex-Lux Funestus, Brutal Pig, ex-Ancient Blood, ex-Cryptic Stench
Chuy Grinder Guitars
Wally Glover Guitars
See also: Putrefacto Hedor Cadaverico, ex-Remnants of Tortured, ex-A Mors et Bello
Chamuko Guitars (?-?), Bass (?-present)
Alan Sickgore Vocals


Technical info
(IMG:https://metalarea.org/images/spectrogram/2021_Sep/2cb800b3194ecfdcd9e07c38f1510705.png)
Input File: 12 - Take the Machete.mp3
Channels : 2
Sample Rate : 44100
Precision : 16-bit
Duration : 00:04:24.00 = 11642400 samples = 19800 CDDA sectors
File Size : 10.8M
Bit Rate : 328k
Sample Encoding: MPEG audio (layer I, II or III)
Comments :
Title=Take the Machete
Artist=Sick Morgue
Album=Festering in a Cesspool of Human Flesh
Tracknumber=12
Year=2021
Discnumber=1



Register


Go to the top of the page
  Insert nick Quick quote
+Quote Post

Reply to this topicStart new topic
2 User(s) are reading this topic (2 Guests and 0 Anonymous Users)
0 Members:

 



- Lo-Fi Version Support form
Copyrights and abuse reports form
Time is now: 24th September 2021 - 01:02:45