Welcome Guest ( Log In | Register )

> Releases Upload / Добавление релизов

Добавить релиз тут / Click here to add release
Рекомендованные обменники / Recommended file shares

> Trigger - Back To The Roots (2021), Death Metal (D13)
post Sep 14 2021, 19:26:59
Post #1

Правь статус, ####!111
**************
Group: Металариец
Posts: 27,453
Releases: 19933
From: Г.Харьков
On Forums: 9 years 4 months
Thanks: 402551 time(s)
Unknown


(IMG:https://metalarea.org/images/audiocovers/2021_Sep/acov_tid355483_thumb.jpg)

*Artist: Trigger
*Album: Back To The Roots
*Year: 2021
*Genre: Death Metal
*Country: Russian Federation (IMG:https://metalarea.org/forum/style_images/flags/Russian%20Federation.png)
*Format: mp3@CBR320kbps
*Size: 95MB

Tracklist:
01. Situation Is Tense
02. Back to the Roots
03. Rejection of Reality
04. Alcoholic Slavery
05. No More Lies
06. Expulsion of Pain
07. Blood Terror
08. Crystal Lake
09. Worn and Torn
10. Vomiting Flame
******************************
Total playing time: 41:04


Preview 2

Extended info
Artem Mozhaev Guitars
Ramin Dragar Vocals
Vladimir Malakhov Drums
Ulyana Andreeva Bass


Technical info
(IMG:https://metalarea.org/images/spectrogram/2021_Sep/bdd5bba3440b787bc41a556de904d4e4.png)
Input File: 10. Vomiting Flame.mp3
Channels : 2
Sample Rate : 44100
Precision : 16-bit
Duration : 00:05:47.00 = 15302700 samples = 26025 CDDA sectors
File Size : 14.0M
Bit Rate : 324k
Sample Encoding: MPEG audio (layer I, II or III)
Comments :
Title=Vomiting Flame
Artist=Trigger
Album=Back to the Roots
Tracknumber=10
Year=2021
Discnumber=1



Register


Go to the top of the page
  Insert nick Quick quote
+Quote Post
 
Start new topic
Replies (1 - 2)
post Sep 18 2021, 17:08:38
Post #2

Маньяк
**********
Group: Металариец
Posts: 1,188
Releases: 0
From: Днепр
On Forums: 7 years 2 months
Thanks: 656 time(s)
Unknown


Нет мы не пропустим этот алмаз .
Он уже на перстне Сатаны.
Несмотря на вялое , неспешное начало, уже 2 трек учит многих .Тут живые завидуют мертвым .
Это подарок жесткача на месяц как минимум.Третий трек вообще сносит остатки и так небольшого моего ума. Все как хочется уже давно . Каждый трек делает мой день .А-А_А мать вашу.. (IMG:style_emoticons/default/pray.gif) (IMG:style_emoticons/default/pray.gif) (IMG:style_emoticons/default/pray.gif) Вот оно , спасибище , значит есть то , что и мне нравится в пороховницах темный материй. Соль сначала идет с порохом наступательных мотивов , и надо сначала слиться с некой властью грубости в виде целой лавы бессознательно работающей на лидирующих позициях РИТМ-СЕКЦИЕЙ, и пусть даже она не бешенна и не быстра , но она ОСНОВА в этом полотне ритмовом. Лидер банды кореш Барбарити и этим все сказано.


Go to the top of the page
  Insert nick Quick quote
+Quote Post
post Sep 18 2021, 18:09:44
Post #3

Правь статус, ####!111
**************
Group: Металариец
Posts: 27,453
Releases: 19933
From: Г.Харьков
On Forums: 9 years 4 months
Thanks: 402551 time(s)
Unknown


FLAC (Tracks) 328 mb
Register


Thanks:
(2) akym, Olethros,
Go to the top of the page
  Insert nick Quick quote
+Quote Post

Reply to this topicStart new topic
1 User(s) are reading this topic (1 Guests and 0 Anonymous Users)
0 Members:

 



- Lo-Fi Version Support form
Copyrights and abuse reports form
Time is now: 29th September 2021 - 03:29:24