Welcome Guest ( Log In | Register )

> Releases Upload / Добавление релизов

Добавить релиз тут / Click here to add release
Рекомендованные обменники / Recommended file shares

> Malignant Rot - Planetary Assimilation (2021), Brutal Death Metal
post Sep 14 2021, 19:38:30
Post #1

Правь статус, ####!111
**************
Group: Металариец
Posts: 27,453
Releases: 19933
From: Г.Харьков
On Forums: 9 years 4 months
Thanks: 402551 time(s)
Unknown


(IMG:https://metalarea.org/images/audiocovers/2021_Sep/acov_tid355484_thumb.jpg)

*Artist: Malignant Rot
*Album: Planetary Assimilation
*Year: 2021
*Genre: Brutal Death Metal
*Country: United States (IMG:https://metalarea.org/forum/style_images/flags/United%20States.png)
*Format: mp3@CBR320kbps
*Size: 70MB

Tracklist:
01. Raped Repeatedly With Retractable Razorblades
02. Consumed by the Perilous Void
03. Deception
04. Planetary Assimilation
05. Religious Brainwashing
06. Trepanations of the Unborn Fetus
07. Post Natal Abortion
08. Visceral Ravaging
09. Bathing in the Remains of Human Filth
******************************
Total playing time: 30:06




Extended info
Cody Hancock Vocals, Guitars, Drum programming (2014-present)
See also: ex-Predominant Mortification, Beyond the Horror, Trepanation, ex-Casuist, ex-Extremely Rotten, ex-As Long as People Die, ex-Throne of Odin
Doug Bell Bass (2020-present)
See also: ex-Predominant Mortification


Technical info
(IMG:https://metalarea.org/images/spectrogram/2021_Sep/dd3f77f66d63d602a3df7c69be2c64bc.png)
Input File: 05. Religious Brainwashing.mp3
Channels : 2
Sample Rate : 44100
Precision : 16-bit
Duration : 00:03:51.54 = 10210870 samples = 17365.4 CDDA sectors
File Size : 9.36M
Bit Rate : 323k
Sample Encoding: MPEG audio (layer I, II or III)
Comments :
Title=Religious Brainwashing
Artist=Malignant Rot
Album=Planetary Assimilation
Tracknumber=5
Year=2021
Discnumber=1/1



Register


Go to the top of the page
  Insert nick Quick quote
+Quote Post
 
Start new topic
Replies (1 - 1)
post Sep 15 2021, 04:02:54
Post #2

Два Литра
**
Group: Завсегдатай
Posts: 108
Releases: 0
On Forums: 11 years 10 months
Thanks: 53 time(s)
Unknown


Гитарной атаки ноль, напора и массивности НЧ ноль, сколько же развелось этих необученных гитаристов, которые жуют беззубыми челюстями хлебушек, вместо четкого акцентированного звукоизвлечения с последующим дисторшированием до увеститого МЯСА!
Go to the top of the page
  Insert nick Quick quote
+Quote Post

Reply to this topicStart new topic
1 User(s) are reading this topic (1 Guests and 0 Anonymous Users)
0 Members:

 



- Lo-Fi Version Support form
Copyrights and abuse reports form
Time is now: 29th September 2021 - 03:42:32