Welcome Guest ( Log In | Register )

> Releases Upload / Добавление релизов

Добавить релиз тут / Click here to add release
Рекомендованные обменники / Recommended file shares

> Sorrowful Life - Sorrowful Life (2021), Atmospheric/Depressive Black Metal
post Sep 14 2021, 21:09:08
Post #1

Правь статус, ####!616
**************
Group: Металариец
Posts: 6,990
Releases: 5442
From: 55°35’N 38°08’E
On Forums: 13 years 2 months
Thanks: 99662 time(s)
Unknown


(IMG:https://metalarea.org/images/audiocovers/2021_Sep/acov_tid355487_thumb.jpg)

*Artist: Sorrowful Life
*Album: Sorrowful Life
*Year: 2021
*Genre: Atmospheric/Depressive Black Metal
*Country: France (IMG:https://metalarea.org/forum/style_images/flags/France.png)
*Format: mp3@CBR320kbps
*Size: 125MB

Tracklist:
1.Worthless 04:52
2.The Only Way 06:36
3.Sorrowful Life 06:31
4.July's Light 07:21
5.Until It's Over 06:08
6.Beyond 01:08
7.Dementia 08:57
8.Abigail (Happy Days Cover) 11:37
******************************
Total playing time: 53:10



Technical info
(IMG:https://metalarea.org/images/spectrogram/2021_Sep/c7e8fe27ebc7720f01d28fe585d6442d.png)
Input File: 02 The Only Way.mp3
Channels : 2
Sample Rate : 44100
Precision : 16-bit
Duration : 00:06:36.09 = 17467701 samples = 29707 CDDA sectors
File Size : 16.0M
Bit Rate : 324k
Sample Encoding: MPEG audio (layer I, II or III)
Comments :
Title=The Only Way
Artist=Sorrowful Life
Album=Sorrowful Life
Tracknumber=2
Year=2021
Genre=Black Metal



Register


Go to the top of the page
  Insert nick Quick quote
+Quote Post
 
Start new topic
Replies (1 - 4)
post Sep 15 2021, 07:40:20
Post #2

Три Литра
***
Group: Завсегдатай
Posts: 275
Releases: 0
From: минск сити
On Forums: 12 years 2 months
Thanks: 115 time(s)
Belarus


Судя по услышанному в bandcamp, вроде неплохая вещь. Красивые мелодии, фоновый вокал, осеннее настроение. Скачаю, для детального ознакомления. (IMG:style_emoticons/default/20.gif)
Спасибо релизеру.
Go to the top of the page
  Insert nick Quick quote
+Quote Post
post Sep 15 2021, 12:26:39
Post #3

Литр
*
Group: Подсевший
Posts: 59
Releases: 0
On Forums: 2 years 4 months
Thanks: 4 time(s)
Israel


убойная музыка супер спб!!
Go to the top of the page
  Insert nick Quick quote
+Quote Post
post Sep 15 2021, 13:02:25
Post #4

Слава всем нам,например!
**************
Group: Металариец
Posts: 2,615
Releases: 33
From: Русская Москва
On Forums: 15 years 3 months
Thanks: 1423 time(s)
Russian Federation


Типичный он-ман продукт,по сути одна мелодия разбитая на несколько треков.Ну так то неплохо для любителей "взгрустнуть" не под думец.
Go to the top of the page
  Insert nick Quick quote
+Quote Post
post Sep 15 2021, 15:43:13
Post #5

Два Литра
**
Group: Завсегдатай
Posts: 154
Releases: 0
From: Калуга
On Forums: 3 years 7 months
Thanks: 40 time(s)
Russian Federation


красивая музыка.
Go to the top of the page
  Insert nick Quick quote
+Quote Post

Reply to this topicStart new topic
3 User(s) are reading this topic (2 Guests and 0 Anonymous Users)
1 Members: alex-82

 



- Lo-Fi Version Support form
Copyrights and abuse reports form
Time is now: 25th September 2021 - 14:26:22