Welcome Guest ( Log In | Register )

> Releases Upload / Добавление релизов

Добавить релиз тут / Click here to add release
Рекомендованные обменники / Recommended file shares

> Deathcult - Bestial Recordings [ep] (2021), Black Metal (D17)
post Sep 14 2021, 21:25:53
Post #1

Правь статус, ####!616
**************
Group: Металариец
Posts: 7,028
Releases: 5478
From: 55°35’N 38°08’E
On Forums: 13 years 2 months
Thanks: 100341 time(s)
Unknown


(IMG:https://metalarea.org/images/audiocovers/2021_Sep/acov_tid355488_thumb.jpg)

*Artist: Deathcult
*Album: Bestial Recordings [ep]
*Year: 2021
*Genre: Black Metal
*Country: Norway (IMG:https://metalarea.org/forum/style_images/flags/Norway.png)
*Format: mp3@CBR320kbps
*Size: 53MB

Tracklist:
1.Pseudocommando
2.Cynocephalus
3.Dogs of War
******************************
Total playing time: 22:51





Technical info
(IMG:https://metalarea.org/images/spectrogram/2021_Sep/96788b73ddd17ef4f7fa140cb4331480.png)
Input File: 01 Bestial Recordings.mp3
Channels : 2
Sample Rate : 44100
Precision : 16-bit
Duration : 00:22:52.08 = 60508816 samples = 102906 CDDA sectors
File Size : 55.0M
Bit Rate : 321k
Sample Encoding: MPEG audio (layer I, II or III)
Comments :
Title=Bestial Recordings
Artist=Deathcult
Album=Bestial Recordings
Tracknumber=1
Year=2021
Genre=Black Metal



Register


Go to the top of the page
  Insert nick Quick quote
+Quote Post
 
Start new topic
Replies (1 - 2)
post Sep 15 2021, 15:29:01
Post #2

De Mysteriis Dom Sathanas
**************
Group: Металариец
Posts: 4,270
Releases: 63
From: Doom
On Forums: 13 years 2 months
Thanks: 3657 time(s)
Russian Federation


И музыка вроде неплоха, и состав сильный, и играют не первый год, но вот ничего интересного для себя не обнаружил - ну сыграли и сыграли - послушал и забыл
Go to the top of the page
  Insert nick Quick quote
+Quote Post
post Sep 18 2021, 23:21:59
Post #3

Самый Тихий Час
**************
Group: Металариец
Posts: 6,672
Releases: 8
On Forums: 11 years 10 months
Thanks: 3143 time(s)
Unknown


Как то не доделано, кустарно, пошло бы как демо запись безымянной банды, но никак не релиз матёрых ребят.


Thanks:
(1) rimfrost,
Go to the top of the page
  Insert nick Quick quote
+Quote Post

Reply to this topicStart new topic
1 User(s) are reading this topic (1 Guests and 0 Anonymous Users)
0 Members:

 



- Lo-Fi Version Support form
Copyrights and abuse reports form
Time is now: 29th September 2021 - 02:32:12