Welcome Guest ( Log In | Register )

> Releases Upload / Добавление релизов

Добавить релиз тут / Click here to add release
Рекомендованные обменники / Recommended file shares

> Chasmdweller - Flesh Crusade (2021), Death/Doom Metal (D4)
post Sep 14 2021, 22:03:43
Post #1

Правь статус, ####!111
**************
Group: Металариец
Posts: 27,411
Releases: 19881
From: Г.Харьков
On Forums: 9 years 4 months
Thanks: 400980 time(s)
Unknown


(IMG:http://metalarea.org/images/audiocovers/2021_Sep/acov_tid355489_thumb.jpg)

*Artist: Chasmdweller
*Album: Flesh Crusade
*Year: 2021
*Genre: Death/Doom Metal
*Country: Canada (IMG:http://metalarea.org/forum/style_images/flags/Canada.png)
*Format: mp3@CBR320kbps
*Size: 101MB

Tracklist:
1. Seeping in Agony 06:42
2. Flesh Crusade 05:02
3. Hexed Beyond Mortality 05:53
4. Abstracted Sanguinary Expulsion 05:38
5. Death Colossus 21:12
******************************
Total playing time: 44:27



Extended info
Zach Smith Guitars, Bass, Drums, Electronics (2019-present)
See also: Malgöth, ex-Chamber of Farts, ex-Cuff, ex-Hate Cross, ex-Intestinal Rot, ex-Virulent Gestation, Execration Chamber, ex-Curse of Decay, ex-KLIT, ex-Necromatory, ex-The One-eyed Muskrats, ex-The Survivalists, ex-Whisker Biscuit
Donny G Vocals, Lyrics (2019-present)
See also: Malgöth


Technical info
(IMG:http://metalarea.org/images/spectrogram/2021_Sep/23f0a930d9c34f4021c132c22da570f7.png)
Input File: 03 - Hexed Beyond Mortality.mp3
Channels : 2
Sample Rate : 44100
Precision : 16-bit
Duration : 00:05:53.06 = 15569902 samples = 26479.4 CDDA sectors
File Size : 14.1M
Bit Rate : 320k
Sample Encoding: MPEG audio (layer I, II or III)
Comments :
Title=Hexed Beyond Mortality
Artist=Chasmdweller
Album=Flesh Crusade
Tracknumber=3
Year=2021
Genre=Metal



Register


Go to the top of the page
  Insert nick Quick quote
+Quote Post
 
Start new topic
Replies (1 - 4)
post Sep 15 2021, 05:09:06
Post #2

Четыре Литра
****
Group: Металариец
Posts: 318
Releases: 0
On Forums: 3 years 7 months
Thanks: 125 time(s)
Belarus


Шум бетономешалки вместо музыки.
Go to the top of the page
  Insert nick Quick quote
+Quote Post
post Sep 15 2021, 11:07:10
Post #3

####!111
**************
Group: Металариец
Posts: 4,472
Releases: 134
From: The Mountain Of DOOM
On Forums: 13 years 11 months
Thanks: 6283 time(s)
Russian Federation


олдскульная дезуха, дума нет
на Disembowelment изредка похоже, но на быстрые фрагменты


Thanks:
Go to the top of the page
  Insert nick Quick quote
+Quote Post
post Sep 18 2021, 14:01:54
Post #4

Old School Metal
**************
Group: Металариец
Posts: 4,028
Releases: 0
From: г. Минск
On Forums: 12 years 6 months
Thanks: 9583 time(s)
Belarus


Lossless: FLAC (tracks)
Register


Thanks:
Go to the top of the page
  Insert nick Quick quote
+Quote Post
post Sep 18 2021, 14:32:28
Post #5

Маньяк
**********
Group: Металариец
Posts: 1,265
Releases: 15
From: RU
On Forums: 11 years 7 months
Thanks: 1301 time(s)
Russian Federation


Среднетемповый OSDM, вокал бухтящий, как и ударка, есть атмосферные запильные неплохие куски на высоких ладах (такое было у Саn.Corpse). Doom здесь кмк нет совсем. И да, есть паузы где как будто сирена урчит или что-то такое(понятно что скорее елозят по грифу), так вот это самое отстойное в сием творении.
Go to the top of the page
  Insert nick Quick quote
+Quote Post

Reply to this topicStart new topic
2 User(s) are reading this topic (2 Guests and 0 Anonymous Users)
0 Members:

 



- Lo-Fi Version Support form
Copyrights and abuse reports form
Time is now: 24th September 2021 - 00:13:12