Welcome Guest ( Log In | Register )

> Releases Upload / Добавление релизов

Добавить релиз тут / Click here to add release
Рекомендованные обменники / Recommended file shares

 
Reply to this topicStart new topic
> Hc Hänninen - Minä Perkele (2016), Death/Thrash Metal
post Sep 14 2021, 22:21:42
Post #1

Правь статус, ####!111
**************
Group: Металариец
Posts: 27,656
Releases: 20094
From: Г.Харьков
On Forums: 9 years 5 months
Thanks: 406528 time(s)
Unknown


(IMG:https://metalarea.org/images/audiocovers/2021_Sep/acov_tid355490_thumb.jpg)

*Artist: Hc Hänninen
*Album: Minä Perkele
*Year: 2016
*Genre: Death/Thrash Metal
*Country: Finland (IMG:https://metalarea.org/forum/style_images/flags/Finland.png)
*Format: mp3@CBR320kbps
*Size: 80MB

Tracklist:
1. Sirkus
2. Sika mieheksi
3. Valioyksilö
4. ALL IN
5. Rooman tuho
6. Veitset
7. Lurjus
8. Viikinki
9. Trapetsi
10. Minä Perkele
******************************
Total playing time: 34:22




Extended info
Drums: Janne Rissanen
Vocals, Guitar: Anssi Hänninen
Bass, Vocals: Tuomas Raatikainen
Guitar: Roni Repo




Technical info
(IMG:https://metalarea.org/images/spectrogram/2021_Sep/004dad7565b21d6e025d46bea04990d6.png)
Input File: 10 - Minä Perkele.mp3
Channels : 2
Sample Rate : 44100
Precision : 16-bit
Duration : 00:06:16.00 = 16581600 samples = 28200 CDDA sectors
File Size : 15.2M
Bit Rate : 324k
Sample Encoding: MPEG audio (layer I, II or III)
Comments :
Title=Minä Perkele
Artist=HC Hänninen
Album=Minä Perkele
Tracknumber=10
Year=2016-08-27
Genre=Metal
Discnumber=1



Register


Go to the top of the page
  Insert nick Quick quote
+Quote Post

Reply to this topicStart new topic
2 User(s) are reading this topic (2 Guests and 0 Anonymous Users)
0 Members:

 



- Lo-Fi Version Support form
Copyrights and abuse reports form
Time is now: 16th October 2021 - 10:15:41