Welcome Guest ( Log In | Register )

> Releases Upload / Добавление релизов

Добавить релиз тут / Click here to add release
Рекомендованные обменники / Recommended file shares

> Мятеж - Минуя Мрак (2021), Thrash Metal
post Sep 14 2021, 23:01:22
Post #1

Правь статус, ####!111
**************
Group: Металариец
Posts: 27,453
Releases: 19933
From: Г.Харьков
On Forums: 9 years 4 months
Thanks: 402546 time(s)
Unknown


(IMG:http://metalarea.org/images/audiocovers/2021_Sep/acov_tid355492_thumb.jpg)

*Artist: Мятеж
*Album: Минуя Мрак
*Year: 2021
*Genre: Thrash Metal
*Country: Russian Federation (IMG:http://metalarea.org/forum/style_images/flags/Russian%20Federation.png)
*Format: mp3@CBR320kbps
*Size: 65MB

Tracklist:
1. Минуя мрак 03:37
2. Голос крови 04:36
3. Пред теряющим силы истоком 03:16
4. Трон на грязи 03:57
5. Сквозь туман 03:28
6. Ты – молот 04:00
7. В горящем одеянии 05:03
******************************
Total playing time: 27:57


Preview 2

Technical info
(IMG:http://metalarea.org/images/spectrogram/2021_Sep/6cc1847c1e4c7e6e3c6da983975e0621.png)
Input File: Мятеж - Минуя мрак - 07 В горящем одеянии.mp3
Channels : 2
Sample Rate : 44100
Precision : 16-bit
Duration : 00:05:03.64 = 13390436 samples = 22772.9 CDDA sectors
File Size : 12.3M
Bit Rate : 324k
Sample Encoding: MPEG audio (layer I, II or III)
Comments :
Title=В горящем одеянии
Artist=Мятеж
Album=Минуя мрак
Tracknumber=7
Year=2021



Register


Go to the top of the page
  Insert nick Quick quote
+Quote Post
 
Start new topic
Replies (1 - 7)
post Sep 15 2021, 04:16:43
Post #2

Два Литра
**
Group: Завсегдатай
Posts: 108
Releases: 0
On Forums: 11 years 10 months
Thanks: 53 time(s)
Unknown


Глухая гитара, звучащая как будто из-за стены, с пластиковым звуком, будто это вообще не настоящая гитара, а синтезатор, это уже вообще днище!!! Что ж это за наказание, что ж это за деградация: чем больше развивается технический прогресс, тем тупее музыканты и тем хуже качество записей!
Go to the top of the page
  Insert nick Quick quote
+Quote Post
post Sep 15 2021, 05:26:04
Post #3

? ? ? ? ? ? ? ?
*******
Group: Металариец
Posts: 730
Releases: 23
On Forums: 14 years 7 months
Thanks: 577 time(s)
Russian Federation


Ну немного старорежимно, но в целом вполне слушабельно.
Go to the top of the page
  Insert nick Quick quote
+Quote Post
post Sep 15 2021, 12:18:00
Post #4

Правь статус, ####!111
**************
Group: Металариец
Posts: 2,707
Releases: 12
On Forums: 14 years 2 months
Thanks: 1563 time(s)
Russian Federation


Больно тщедушная запись.
Go to the top of the page
  Insert nick Quick quote
+Quote Post
post Sep 15 2021, 13:55:51
Post #5

0%Tolerance
**********
Group: Металариец
Posts: 1,330
Releases: 0
On Forums: 9 years 1 week
Thanks: 237 time(s)
Unknown


С пивом проканает нормально.
Go to the top of the page
  Insert nick Quick quote
+Quote Post
post Sep 15 2021, 17:51:03
Post #6

Group: Подсевший
Posts: 17
Releases: 0
On Forums: 15 years 2 months
Thanks: 1 time(s)
Russian Federation


вполне слушабельно
Go to the top of the page
  Insert nick Quick quote
+Quote Post
post Sep 15 2021, 19:02:50
Post #7

Литр
*
Group: Подсевший
Posts: 61
Releases: 0
On Forums: 15 years 11 months
Thanks: 20 time(s)
Russian Federation


Да это невозможно слушать
Go to the top of the page
  Insert nick Quick quote
+Quote Post
post Sep 15 2021, 23:47:34
Post #8

Шесть Литров
******
Group: Металариец
Posts: 558
Releases: 0
From: Москва
On Forums: 14 years 11 months
Thanks: 122 time(s)
Russian Federation


Типа опа примитивный трэш а-ля немцы 80-х. Пластмассовый звук, на удивление неглупые местами тексты, в целом - музыка на любителя.
Go to the top of the page
  Insert nick Quick quote
+Quote Post

Reply to this topicStart new topic
2 User(s) are reading this topic (2 Guests and 0 Anonymous Users)
0 Members:

 



- Lo-Fi Version Support form
Copyrights and abuse reports form
Time is now: 29th September 2021 - 02:17:11