Welcome Guest ( Log In | Register )

> Releases Upload / Добавление релизов

Добавить релиз тут / Click here to add release
Рекомендованные обменники / Recommended file shares

> Devoid - Return To The Void (The Complete Recorded Works) [compilation] (2015), Death Metal (D9)
post Sep 14 2021, 23:02:17
Post #1

Правь статус, ####!616
**************
Group: Металариец
Posts: 7,028
Releases: 5478
From: 55°35’N 38°08’E
On Forums: 13 years 2 months
Thanks: 100341 time(s)
Unknown


(IMG:https://metalarea.org/images/audiocovers/2021_Sep/acov_tid355493_thumb.jpg)

*Artist: Devoid
*Album: Return To The Void (The Complete Recorded Works) [compilation]
*Year: 2015
*Genre: Death Metal
*Country: United Kingdom (IMG:https://metalarea.org/forum/style_images/flags/United%20Kingdom.png)
*Format: mp3@CBR320kbps
*Size: 151MB

Tracklist:
1.Entangled 05:22
2.Banished From Humanity 03:17
3.Relentless Anguish 04:42
4.Obsession Syndrome 03:26
5.Live Through My Pain 04:58
6.Burning Rage 04:29
7.Defiance 04:49
8.Human Plague(Demo' 90) 05:28
9.Doomed (Demo´90) 05:30
10.Beyond Your Destiny (Demo'90) 05:27
11.Bond Of Secrets (Promo´92) 07:40
12.Circle Of Hypocrites (Promo'92) 05:09
13.Hazed Insight (Promo´92) 05:16
******************************
Total playing time: 1:05:33



Technical info
(IMG:https://metalarea.org/images/spectrogram/2021_Sep/5e10493cfb94edb1688c31e3f03b9421.png)
Input File: 01. Entangled.mp3
Channels : 2
Sample Rate : 44100
Precision : 16-bit
Duration : 00:05:22.69 = 14230409 samples = 24201.4 CDDA sectors
File Size : 13.0M
Bit Rate : 323k
Sample Encoding: MPEG audio (layer I, II or III)
Comments :
Title=Entangled
Artist=Devoid
Album=Return To The Void (The Complete Recorded Works)
Tracknumber=1
Year=2015
Genre=Death Metal



Register


Go to the top of the page
  Insert nick Quick quote
+Quote Post
 
Start new topic
Replies (1 - 1)
post Sep 15 2021, 11:11:59
Post #2

Правь статус, ####!616
**************
Group: Металариец
Posts: 7,028
Releases: 5478
From: 55°35’N 38°08’E
On Forums: 13 years 2 months
Thanks: 100341 time(s)
Unknown


FLAC

Register


Thanks:
(2) Marek, wreak,
Go to the top of the page
  Insert nick Quick quote
+Quote Post

Reply to this topicStart new topic
1 User(s) are reading this topic (1 Guests and 0 Anonymous Users)
0 Members:

 



- Lo-Fi Version Support form
Copyrights and abuse reports form
Time is now: 29th September 2021 - 02:39:12