Welcome Guest ( Log In | Register )

> Releases Upload / Добавление релизов

Добавить релиз тут / Click here to add release
Рекомендованные обменники / Recommended file shares

> .357 Homicide - Executed On Site (2021), Slamming Brutal Death Metal
post Sep 15 2021, 01:28:11
Post #1

Правь статус, ####!111
**************
Group: Металариец
Posts: 27,453
Releases: 19933
From: Г.Харьков
On Forums: 9 years 4 months
Thanks: 402547 time(s)
Unknown


(IMG:http://metalarea.org/images/audiocovers/2021_Sep/acov_tid355494_thumb.jpg)

*Artist: .357 Homicide
*Album: Executed On Site
*Year: 2021
*Genre: Slamming Brutal Death Metal
*Country: United Kingdom (IMG:http://metalarea.org/forum/style_images/flags/United%20Kingdom.png)
*Format: mp3@CBR320kbps
*Size: 74MB

Tracklist:
01. Partner in Perversion
02. Fetid Rigor Mortis
03. Civilian Incursion
04. Mangled in the Snow
05. Incremation (ft. Mats Funderud of Kraanium)
06. Severe Latrogenesis
07. Sanguineous Drainage
08. Impure Gangrene Embalming
09. Jugular Constrictor (ft. Kirill Zarubin of Traumatomy)
10. Executed on Site
******************************
Total playing time: 32:38




Extended info
FLAC-Rip
Jake Gamble Drums, Vocals (2020-present)
See also: Capital Punishment
Mat Davies Guitars, Programming, Vocals (2020-present)
See also: Capital Punishment


Technical info
(IMG:http://metalarea.org/images/spectrogram/2021_Sep/2ff05c61037117306cf325ee6f429afd.png)
Input File: 08. Impure Gangrene Embalming.mp3
Channels : 2
Sample Rate : 44100
Precision : 16-bit
Duration : 00:04:17.74 = 11366158 samples = 19330.2 CDDA sectors
File Size : 10.3M
Bit Rate : 320k
Sample Encoding: MPEG audio (layer I, II or III)
Comments :
Title=Impure Gangrene Embalming
Artist=.357 Homicide
Album=Executed on Site
Tracknumber=8
Year=2021
Genre=Death Metal



Register


Go to the top of the page
  Insert nick Quick quote
+Quote Post
 
Start new topic
Replies (1 - 1)
post Sep 15 2021, 04:13:28
Post #2

Два Литра
**
Group: Завсегдатай
Posts: 108
Releases: 0
On Forums: 11 years 10 months
Thanks: 53 time(s)
Unknown


Зашкаливающий клиппинг, песочная гитара, будто писали на задрипанную аудиокассету! Постыдились бы хоть, дурачье, выпускать с таким качеством такой примитивный риффинг в 2021 году! Эти риффы уже 100000 раз жеваны-пережеваны, но с более жирным саундом и с лучшим качеством!


Thanks:
(1) AHBAnep,
Go to the top of the page
  Insert nick Quick quote
+Quote Post

Reply to this topicStart new topic
2 User(s) are reading this topic (2 Guests and 0 Anonymous Users)
0 Members:

 



- Lo-Fi Version Support form
Copyrights and abuse reports form
Time is now: 29th September 2021 - 02:49:09