Welcome Guest ( Log In | Register )

> Insomnium - Argent Moon [ep] (2021), Melodic Death Metal (D)
post Sep 16 2021, 11:35:11
Post #1

Правь статус, ####!111
**************
Group: Металариец
Posts: 30,924
Releases: 22794
From: Г.Харьков
On Forums: 10 years 6 months
Thanks: 477015 time(s)
Unknown


(IMG:https://metalarea.org/images/audiocovers/2021_Sep/acov_tid355533_thumb.jpg)

*Artist: Insomnium
*Album: Argent Moon [ep]
*Year: 2021
*Genre: Melodic Death Metal
*Country: Finland (IMG:https://metalarea.org/forum/style_images/flags/Finland.png)
*Format: mp3@CBR320kbps
*Size: 53MB

Tracklist:
1. The Conjurer 07:25
2. The Reticent 04:32
3. The Antagonist 05:03
4. The Wanderer 06:11
******************************
Total playing time: 23:11



Extended info
Niilo Sevänen Bass, Vocals (1997-present)
See also: ex-Watch Me Fall
Markus Hirvonen Drums (1997-present)
Ville Friman Guitars (1997-present), Vocals (clean) (2011-present)
See also: ex-Enter My Silence, ex-Arrival
Markus Vanhala Guitars (2011-present)
See also: I Am the Night, Malpractice, Omnium Gatherum, ex-Gore Penetration, ex-Manitou, ex-Diablo (live), ex-Pressure Points (live), ex-Seer of Curses
Jani Liimatainen Guitars, Vocals (clean) (2019-present)
See also: Cain's Offering, The Dark Element, Omnium Gatherum (live), ex-Graveyard Shift, ex-Tricky Means, Kotipelto & Liimatainen, Sydänpuu, ex-Altaria, ex-Sonata Arctica, ex-Paul Di'Anno (live), ex-Dream Asylum


Technical info
(IMG:https://metalarea.org/images/spectrogram/2021_Sep/32131a40414b7d87d9419afb351dbe7d.png)
Input File: 04. The Wanderer.mp3
Channels : 2
Sample Rate : 44100
Precision : 16-bit
Duration : 00:06:11.00 = 16361100 samples = 27825 CDDA sectors
File Size : 15.0M
Bit Rate : 323k
Sample Encoding: MPEG audio (layer I, II or III)
Comments :
Title=The Wanderer
Artist=Insomnium
Album=Argent Moon
Tracknumber=4
Year=2021-09-17
Genre=Metal
Discnumber=1



Register


Go to the top of the page
  Insert nick Quick quote
+Quote Post
2 Pages V  < 1 2  
Start new topic
Replies (30 - 32)
post Oct 9 2021, 13:04:58
Post #31

Ъ
**************
Group: Металариец
Posts: 11,110
Releases: 9
On Forums: 13 years 10 months
Thanks: 2237 time(s)
Sweden


Погонял несколько раз, неплохо местами, но для полноформатника слабоваты.


Thanks:
(1) Metalass,
Go to the top of the page
  Insert nick Quick quote
+Quote Post
post Oct 17 2021, 13:51:29
Post #32

https://rateyourmusic.com/~Ghostb
**************
Group: Металариец
Posts: 2,708
Releases: 0
From: Харьков
On Forums: 13 years 2 months
Thanks: 1340 time(s)
Ukraine


ЦИТАТА(WOLAND @ Sep 18 2021, 12:40:14) *
не заметили как перещеголяли их во всем

ЦИТАТА(WOLAND @ Sep 18 2021, 12:40:14) *
дань молодости.Инсомниум превратился во вторяк Омниум Гатериум

Мне тоже OG всегда интереснее казались, не такие однообразные и мелодика/атмосфера покруче как-то. Даже немного жаль, что Маркус свой талант на две группы расходует, мог бы дальше шедевры в основной группе записывать как было в 2011-2013 гг. А ипиху послушаю, один трек на ютубе заценил, вроде любопытно так.

ЦИТАТА(Bride @ Sep 18 2021, 13:08:15) *
Посмотрел и послушал The Wanderer: соплежевание, баба какая-то в трусах по полю бегает. Ну и кринж

Да, вот этот клип как раз (IMG:style_emoticons/default/1488.gif)
Go to the top of the page
  Insert nick Quick quote
+Quote Post
post May 19 2022, 14:57:09
Post #33

Group: Подсевший
Posts: 39
Releases: 0
On Forums: 3 years 1 month
Thanks: 20 time(s)
Unknown


послушала только что 1 раз - вроде неплохо. Ожидала хуже, а оказалось ничего, слушать можно. Не понравился как раз только первый трек (IMG:style_emoticons/default/1488.gif) Всё-таки надеюсь, что на полноформатнике будет что-то помощнее.
Go to the top of the page
  Insert nick Quick quote
+Quote Post

2 Pages V  < 1 2
Reply to this topicStart new topic
2 User(s) are reading this topic (2 Guests and 0 Anonymous Users)
0 Members:

 



- Lo-Fi Version Support form
Copyrights and abuse reports form
Time is now: 3rd December 2022 - 17:46:43