Welcome Guest ( Log In | Register )

> И неформату есть предел.

Рэп/хип-хоп/шансон/поп удаляются. Для них есть свои порталы.

 
Reply to this topicStart new topic
> Noise Unit - Deviator (2021), Ebm/Electro-Industrial
post Sep 17 2021, 19:26:45
Post #1

Group: Дух
Posts: 2
Releases: 0
On Forums: 3 years 1 month
Thanks: 8 time(s)
Tunisia


(IMG:https://metalarea.org/images/audiocovers/2021_Sep/acov_tid355618_thumb.jpg)

*Artist: Noise Unit
*Album: Deviator
*Year: 2021
*Genre: Ebm/Electro-Industrial
*Country: Canada (IMG:https://metalarea.org/forum/style_images/flags/Canada.png)
*Format: mp3@CBR320kbps
*Size: 125MB

Tracklist:
1.Plight 6:15
2.Body Aktiv 4:36
3.Misery 4:59
4.Fargo Field 4:09
5.Atrocity Obsession (feat. Raymond Watts / PIG) 5:06
6.K7 4:43
7.Recognize 5:01
8.Empath 5:45
9.Initiate 6:37
10.Deviator 5:41
******************************
Total playing time: 52:52


youtube

Technical info
(IMG:https://metalarea.org/images/spectrogram/2021_Sep/97a20bd2f96047cf5b33c2a402a4ec69.png)
Input File: 02. Body Aktiv.mp3
Channels : 2
Sample Rate : 44100
Precision : 16-bit
Duration : 00:04:36.45 = 12191269 samples = 20733.5 CDDA sectors
File Size : 11.5M
Bit Rate : 333k
Sample Encoding: MPEG audio (layer I, II or III)
Comments :
Title=Body Aktiv
Artist=Noise Unit
Album=Deviator
Tracknumber=2/10
Year=2021
Genre=Electro
Discnumber=1/1



Register


Go to the top of the page
  Insert nick Quick quote
+Quote Post

Reply to this topicStart new topic
1 User(s) are reading this topic (1 Guests and 0 Anonymous Users)
0 Members:

 



- Lo-Fi Version Support form
Copyrights and abuse reports form
Time is now: 16th October 2021 - 19:31:08