Welcome Guest ( Log In | Register )

> Releases Upload / Добавление релизов

Добавить релиз тут / Click here to add release
Рекомендованные обменники / Recommended file shares

 
Reply to this topicStart new topic
> Batrakos & Aisna - Batrakos/Aisna [split] (2017), Raw Black Metal/Noise | Black Metal (D4)
post Sep 18 2021, 19:43:13
Post #1

funeral doom fan
Group Icon
Group: S-moderation team
Posts: 5,172
Releases: 2819
From: Ростов-на-Дону
On Forums: 15 years 9 months
Thanks: 53362 time(s)
Russian Federation


(IMG:http://metalarea.org/images/audiocovers/2021_Sep/acov_tid355654_thumb.jpg)

*Artist: Batrakos & Aisna
*Album: Batrakos/Aisna [split]
*Year: 2017
*Genre: Raw Black Metal/Noise | Black Metal
*Country: Italy (IMG:http://metalarea.org/forum/style_images/flags/Italy.png) | Italy (IMG:http://metalarea.org/forum/style_images/flags/Italy.png)
*Format: mp3@CBR320kbps
*Size: 48MB

Tracklist:
Batrakos:
1. Le beau est mort 04:31
2. Shame on You Tracy Diamond 04:12

Aisna:
3. Vanec Calus 06:14
4. Hinthial Terasials 05:36
******************************
Total playing time: 20:33



Technical info
(IMG:http://metalarea.org/images/spectrogram/2021_Sep/92cbf88c085b819f68175fea25f3c33d.png)
Input File: 01 - Batrakos - Le Beau Est Mort.mp3
Channels : 2
Sample Rate : 44100
Precision : 16-bit
Duration : 00:04:32.08 = 11998860 samples = 20406.2 CDDA sectors
File Size : 11.1M
Bit Rate : 325k
Sample Encoding: MPEG audio (layer I, II or III)
Comments :
Title=Le Beau Est Mort
Artist=Batrakos
Album=Batrakos / Aisna
Tracknumber=1
Year=2017
Genre=Metal



Register


Go to the top of the page
  Insert nick Quick quote
+Quote Post

Reply to this topicStart new topic
1 User(s) are reading this topic (1 Guests and 0 Anonymous Users)
0 Members:

 



- Lo-Fi Version Support form
Copyrights and abuse reports form
Time is now: 25th October 2021 - 21:53:40