Welcome Guest ( Log In | Register )

> И неформату есть предел.

Рэп/хип-хоп/шансон/поп удаляются. Для них есть свои порталы.

 
Reply to this topicStart new topic
> Licht- Und Schattensaiten - Weißbunter Rabe (2019), Acoustic (D)
post Sep 21 2021, 18:49:42
Post #1

funeral doom fan
Group Icon
Group: S-moderation team
Posts: 5,374
Releases: 3022
From: Ростов-на-Дону
On Forums: 15 years 11 months
Thanks: 57316 time(s)
Russian Federation


(IMG:http://metalarea.org/images/audiocovers/2021_Sep/acov_tid355762_thumb.jpg)

*Artist: Licht- Und Schattensaiten
*Album: Weißbunter Rabe
*Year: 2019
*Genre: Acoustic
*Country: Germany (IMG:http://metalarea.org/forum/style_images/flags/Germany.png)
*Format: mp3@CBR320kbps
*Size: 127MB

Tracklist:
1. Sonnenaufgang 03:53
2. Morgennebel 12:43
3. Spur im Sand 08:57
4. Über Wolken 07:55
5. Menschen bringen Tod 09:47
6. In die Einsamkeit 08:48
7. Grau in Grau 03:43
******************************
Total playing time: 55:46



Technical info
(IMG:http://metalarea.org/images/spectrogram/2021_Sep/1e8cb08166b5248c4e291b9301128415.png)
Input File: 01 - Sonnenaufgang.mp3
Channels : 2
Sample Rate : 44100
Precision : 16-bit
Duration : 00:03:53.37 = 10291485 samples = 17502.5 CDDA sectors
File Size : 9.34M
Bit Rate : 320k
Sample Encoding: MPEG audio (layer I, II or III)
Comments :
Title=Sonnenaufgang
Artist=Licht- und Schattensaiten
Album=Weißbunter Rabe
Tracknumber=01
Year=2019



Register


Go to the top of the page
  Insert nick Quick quote
+Quote Post

Reply to this topicStart new topic
1 User(s) are reading this topic (1 Guests and 0 Anonymous Users)
0 Members:

 



- Lo-Fi Version Support form
Copyrights and abuse reports form
Time is now: 9th December 2021 - 05:40:30