Welcome Guest ( Log In | Register )

> И неформату есть предел.

Рэп/хип-хоп/шансон/поп удаляются. Для них есть свои порталы.

 
Reply to this topicStart new topic
> Mick Harris - Hednod Nine [ep] (2021), Industrial/Illbient/Dub (D6)
post Sep 22 2021, 06:09:24
Post #1

Восемь Литров
********
Group: Металариец
Posts: 835
Releases: 36
From: Санкт-Петербург
On Forums: 15 years 4 months
Thanks: 2473 time(s)
Russian Federation


(IMG:http://metalarea.org/images/audiocovers/2021_Sep/acov_tid355774_thumb.jpg)

*Artist: Mick Harris
*Album: HedNod Nine [ep]
*Year: 2021
*Genre: Industrial/Illbient/Dub
*Country: United Kingdom (IMG:http://metalarea.org/forum/style_images/flags/United%20Kingdom.png)
*Format: mp3@CBR320kbps
*Size: 56MB

Tracklist:
01. Tat Man 05:06
02. Pallet 04:35
03. Pallet In & Out V 02:19
04. From Home 05:17
05. Matron 04:25
06. Matron Exercise Bike V 02:24
******************************
Total playing time: 24:05



Technical info
(IMG:http://metalarea.org/images/spectrogram/2021_Sep/2cea8eef7034e0f552a6410e34863f51.png)
Input File: 01 - Tat Man.mp3
Channels : 2
Sample Rate : 44100
Precision : 16-bit
Duration : 00:05:05.97 = 13493101 samples = 22947.5 CDDA sectors
File Size : 12.2M
Bit Rate : 320k
Sample Encoding: MPEG audio (layer I, II or III)
Comments :
Title=Tat Man
Artist=Mick Harris
Album=HedNod Nine (EP)
Tracknumber=01
Year=2021
Genre=Industrial/Illbient/Dub



Register


Go to the top of the page
  Insert nick Quick quote
+Quote Post

Reply to this topicStart new topic
1 User(s) are reading this topic (1 Guests and 0 Anonymous Users)
0 Members:

 



- Lo-Fi Version Support form
Copyrights and abuse reports form
Time is now: 16th October 2021 - 19:41:43