Welcome Guest ( Log In | Register )

> Правила / Rules

Тут только для чтения лежат низкобитрейтные (<192kbps) релизы, для которых есть аналоги в высокобитрейтных форумах.

Here goes (and stand in read only mode) low bitrate releases (<192kbps) which were already replaced by high bitrate releases in corresponding forums.

Причина закрытия (Абигор 26-09-2021): Iskandr - Vergezicht (2021)
 
Closed TopicStart new topic
> Iskandr - Vergezicht (2021), Black Metal (D5)
post Sep 23 2021, 16:15:15
Post #1

Правь статус, ####!111
**************
Group: Металариец
Posts: 28,198
Releases: 20585
From: Г.Харьков
On Forums: 9 years 6 months
Thanks: 419585 time(s)
Unknown


(IMG:https://metalarea.org/images/audiocovers/2021_Sep/acov_tid355827_thumb.jpg)

*Artist: Iskandr
*Album: Vergezicht
*Year: 2021
*Genre: Black Metal
*Country: Netherlands (IMG:https://metalarea.org/forum/style_images/flags/Netherlands.png)
*Format: mp3@CBR320kbps
*Size: 146MB

Tracklist:
1. Gezag 10:50
2. Bloeddraad 08:22
3. Gewesten der tijd 13:05
4. Baken 07:31
5. Verbod 10:04
6. Het slot 13:54
******************************
Total playing time: 1:03:46



Extended info
M. Koops Drums
See also: Fluisteraars, Galg, Knoest, Nusquama, Solar Temple, Bong Breaker
O Everything
See also: Galg, Imperial Cult, Lubbert Das, Nusquama, Solar Temple, Turia, ex-Heaven Denies, Dool, Eden to Ashes


Technical info
(IMG:https://metalarea.org/images/spectrogram/2021_Sep/7c8a3fd56222acfd67668271293a7a04.png)
Input File: 03 - Gewesten der Tijd.mp3
Channels : 2
Sample Rate : 44100
Precision : 16-bit
Duration : 00:13:02.83 = 34522847 samples = 58712.3 CDDA sectors
File Size : 31.5M
Bit Rate : 322k
Sample Encoding: MPEG audio (layer I, II or III)
Comments :
Title=Gewesten der Tijd
Artist=Iskandr
Album=Vergezicht
Tracknumber=3
Year=2021



Register


Go to the top of the page
  Insert nick Quick quote
+Quote Post

Причина закрытия (Абигор 26-09-2021): Iskandr - Vergezicht (2021)
Closed TopicStart new topic
2 User(s) are reading this topic (2 Guests and 0 Anonymous Users)
0 Members:

 



- Lo-Fi Version Support form
Copyrights and abuse reports form
Time is now: 9th December 2021 - 06:27:16