Welcome Guest ( Log In | Register )

> Releases Upload / Добавление релизов

Добавить релиз тут / Click here to add release
Рекомендованные обменники / Recommended file shares

> Lunar Spells - Where Silence Whispers (2021), Raw Black Metal
post Sep 23 2021, 21:08:48
Post #1

funeral doom fan
Group Icon
Group: S-moderation team
Posts: 5,134
Releases: 2790
From: Ростов-на-Дону
On Forums: 15 years 9 months
Thanks: 52873 time(s)
Russian Federation


(IMG:http://metalarea.org/images/audiocovers/2021_Sep/acov_tid355837_thumb.jpg)

*Artist: Lunar Spells
*Album: Where Silence Whispers
*Year: 2021
*Genre: Raw Black Metal
*Country: Greece (IMG:http://metalarea.org/forum/style_images/flags/Greece.png)
*Format: mp3@CBR320kbps
*Size: 82MB

Tracklist:
1. Praying for Redemption 06:06
2. Among the Ashes 05:15
3. The Wounds of Salvation 05:34
4. Majesty of the Silent Moon 06:11
5. Obscured Reign 05:06
6. Anguish and Sorrow 07:34
******************************
Total playing time: 35:46



Technical info
(IMG:http://metalarea.org/images/spectrogram/2021_Sep/6a7ec1aaf3200853a84b259e1ff1a30c.png)
Input File: 02 - Among The Ashes.mp3
Channels : 2
Sample Rate : 48000
Precision : 16-bit
Duration : 00:05:06.10 = 14692752 samples ~ 22957.4 CDDA sectors
File Size : 12.2M
Bit Rate : 320k
Sample Encoding: MPEG audio (layer I, II or III)
Comments :
Title=Among The Ashes
Artist=Lunar Spells
Album=Where Silence Whispers
Tracknumber=02
Year=2021



Register


Go to the top of the page
  Insert nick Quick quote
+Quote Post
 
Start new topic
Replies (1 - 6)
post Sep 24 2021, 08:03:19
Post #2

Маньяк
**********
Group: Металариец
Posts: 1,312
Releases: 1
From: Беларусь
On Forums: 13 years 9 months
Thanks: 559 time(s)
Russian Federation


Ну и в каком месте это raw? Симфо-блэк с клавишами
Go to the top of the page
  Insert nick Quick quote
+Quote Post
post Sep 24 2021, 12:04:59
Post #3

my church is black
**********
Group: Металариец
Posts: 1,110
Releases: 4
On Forums: 4 years 4 months
Thanks: 768 time(s)
Bhutan


Да вполне бодрый альбом, клавишные не раздражают, но и без них было бы нормально.
Go to the top of the page
  Insert nick Quick quote
+Quote Post
post Sep 24 2021, 13:40:58
Post #4

Common dweller of hell
**************
Group: Металариец
Posts: 4,049
Releases: 12
From: Dnipro
On Forums: 13 years 3 months
Thanks: 1580 time(s)
Ukraine


Зачетная гречка (IMG:style_emoticons/default/20.gif)
ЦИТАТА(Moonshtook @ Sep 24 2021, 10:03:19) *
Ну и в каком месте это raw? Симфо-блэк с клавишами

Может и не raw, но наверное и не symphonic. Просто типичный melodic hellenic black metal, по моему очень похожи на земляков из Sad.
Вообще альбом замечательный, с первого раза цепанул, с удовольствием был LOSSLESS сгрёб.
Go to the top of the page
  Insert nick Quick quote
+Quote Post
post Sep 25 2021, 21:40:30
Post #5

Пять Литров
*****
Group: Металариец
Posts: 427
Releases: 1
On Forums: 9 years 3 months
Thanks: 182 time(s)
South Korea


Шикарно
Go to the top of the page
  Insert nick Quick quote
+Quote Post
post Sep 26 2021, 09:06:32
Post #6

Литр
*
Group: Подсевший
Posts: 81
Releases: 0
From: Zürich
On Forums: 4 months 5 days
Thanks: 23 time(s)
Switzerland


Ничего особо выдающегося не заметил. Неплохо звучит, но ужасно монотонно, да и не особо цепляюще - иногда проскакивают приятные мелодии, однако под конец прослушивания ничего выделить не смог.
Go to the top of the page
  Insert nick Quick quote
+Quote Post
post Sep 26 2021, 21:11:13
Post #7

Common dweller of hell
**************
Group: Металариец
Posts: 4,049
Releases: 12
From: Dnipro
On Forums: 13 years 3 months
Thanks: 1580 time(s)
Ukraine


LOSSLESS? (IMG:style_emoticons/default/pray.gif)
Go to the top of the page
  Insert nick Quick quote
+Quote Post

Reply to this topicStart new topic
1 User(s) are reading this topic (1 Guests and 0 Anonymous Users)
0 Members:

 



- Lo-Fi Version Support form
Copyrights and abuse reports form
Time is now: 20th October 2021 - 14:10:14