Welcome Guest ( Log In | Register )

> Vauruvã - Manso Queimor Dacordado (2021), Progressive Black Metal
post Sep 24 2021, 12:59:05
Post #1

Правь статус, 616
**************
Group: Металариец
Posts: 7,222
Releases: 5651
From: 55°35’N 38°08’E
On Forums: 13 years 4 months
Thanks: 104126 time(s)
Unknown


(IMG:https://metalarea.org/images/audiocovers/2021_Sep/acov_tid355861_thumb.jpg)

*Artist: Vauruvã
*Album: Manso Queimor Dacordado
*Year: 2021
*Genre: Progressive Black Metal
*Country: Brazil (IMG:https://metalarea.org/forum/style_images/flags/Brazil.png)
*Format: mp3@CBR320kbps
*Size: 109MB

Tracklist:
1.Florescência 04:12
2.À Sombridão 05:24
3.Baféu Vara Fronteiras 03:46
4.Jequitibá-eté 06:40
5.Baféu no Grande Ocaso 07:02
6.Morrer de Alegria 06:53
7.Os Ipês 12:00
******************************
Total playing time: 45:57



Technical info
(IMG:https://metalarea.org/images/spectrogram/2021_Sep/ddde217ea5481006127336003d4e24bc.png)
Input File: 01 Florescência.mp3
Channels : 2
Sample Rate : 44100
Precision : 16-bit
Duration : 00:04:12.75 = 11146319 samples = 18956.3 CDDA sectors
File Size : 10.4M
Bit Rate : 328k
Sample Encoding: MPEG audio (layer I, II or III)
Comments :
Title=Florescência
Artist=Vauruvã
Album=Manso Queimor Dacordado
Tracknumber=1
Year=2021
Genre=Black Metal



Register


Go to the top of the page
  Insert nick Quick quote
+Quote Post
 
Start new topic
Replies (1 - 1)
post Sep 24 2021, 17:30:53
Post #2

Три Литра
***
Group: Завсегдатай
Posts: 276
Releases: 1
From: Brasil - Sao Paulo
On Forums: 1 year 7 months
Thanks: 114 time(s)
Brazil


The same dude from "Kaatayra".
Here you can download his albums and check it by yourselves, awesome stuff (IMG:style_emoticons/default/pray.gif)
Register
Go to the top of the page
  Insert nick Quick quote
+Quote Post

Reply to this topicStart new topic
1 User(s) are reading this topic (1 Guests and 0 Anonymous Users)
0 Members:

 



- Lo-Fi Version Support form
Copyrights and abuse reports form
Time is now: 5th December 2021 - 02:17:41