Welcome Guest ( Log In | Register )

 
Reply to this topicStart new topic
> Hades Rising - As Frost Takes Over [ep] (2018), Melodic Black/Death Metal
post Sep 24 2021, 17:41:10
Post #1

Семь Литров
*******
Group: Металариец
Posts: 720
Releases: 148
On Forums: 2 years 6 months
Thanks: 2848 time(s)
Russian Federation


(IMG:https://metalarea.org/images/audiocovers/2021_Sep/acov_tid355910_thumb.jpg)

*Artist: Hades Rising
*Album: As Frost Takes Over [ep]
*Year: 2018
*Genre: Melodic Black/Death Metal
*Country: Norway (IMG:https://metalarea.org/forum/style_images/flags/Norway.png)
*Format: mp3@CBR320kbps
*Size: 45MB

Tracklist:
1. As Frost Takes Over 04:40
2. Reliquary of Life 05:03
3. Winter Elegy 04:04
4. Repined Thoughts 05:38
******************************
Total playing time: 19:25





Technical info
(IMG:https://metalarea.org/images/spectrogram/2021_Sep/4f0252dff59950a478c5225705d8b6d9.png)
Input File: 04. Repined Thoughts.mp3
Channels : 2
Sample Rate : 44100
Precision : 16-bit
Duration : 00:00:00.34 = 14906 samples = 25.3503 CDDA sectors
File Size : 14.5M
Bit Rate : 342M
Sample Encoding: MPEG audio (layer I, II or III)
Comments :
Title=Repined Thoughts
Artist=Hades Rising
Album=As Frost Takes Over
Tracknumber=4/4
Year=2018
Genre=Melodic Black/Death Metal



Register


Go to the top of the page
  Insert nick Quick quote
+Quote Post

Reply to this topicStart new topic
1 User(s) are reading this topic (1 Guests and 0 Anonymous Users)
0 Members:

 



- Lo-Fi Version Support form
Copyrights and abuse reports form
Time is now: 4th December 2021 - 11:17:37