Welcome Guest ( Log In | Register )

> Releases Upload / Добавление релизов

Добавить релиз тут / Click here to add release
Рекомендованные обменники / Recommended file shares

 
Reply to this topicStart new topic
> Grim Fate & The Sombre - From Ancient Slumber & The Horrid Silence Thus Began [split] (2021), Death Metal | Doom/Death Metal (D5)
post Sep 25 2021, 15:33:05
Post #1

Пять Литров
*****
Group: Металариец
Posts: 419
Releases: 83
On Forums: 8 years 6 hours
Thanks: 1745 time(s)
Serbia


(IMG:http://metalarea.org/images/audiocovers/2021_Sep/acov_tid355949_thumb.jpg)

*Artist: Grim Fate & The Sombre
*Album: From Ancient Slumber & The Horrid Silence Thus Began [split]
*Year: 2021
*Genre: Death Metal | Doom/Death Metal
*Country: Netherlands (IMG:http://metalarea.org/forum/style_images/flags/Netherlands.png) | Netherlands (IMG:http://metalarea.org/forum/style_images/flags/Netherlands.png)
*Format: mp3@CBR320kbps
*Size: 98MB

Tracklist:
Grim Fate:
1. Corpse Eater 06:38
2. Smoarge Fine 10:46
3. From Ancient Slumber 05:53
The Sombre:
4. Above th' Aoian Mount 06:23
5. His Pride Cat Him Out From Heav'n 07:23
6. The Horrid Silence Thus Began 05:40
******************************
Total playing time: 42:43



Technical info
(IMG:http://metalarea.org/images/spectrogram/2021_Sep/26bf9fa7b49952df0e6a07ddc039bcd4.png)
Input File: 04. The Sombre - Above th' Aoian Mount.mp3
Channels : 2
Sample Rate : 44100
Precision : 16-bit
Duration : 00:06:21.44 = 16821416 samples = 28607.9 CDDA sectors
File Size : 15.3M
Bit Rate : 320k
Sample Encoding: MPEG audio (layer I, II or III)
Comments :
Title=Above th' Aoian Mount
Artist=The Sombre
Album=From Ancient Slumber / The Horrid Silence Thus Began
Tracknumber=04
Year=2021



Register


Go to the top of the page
  Insert nick Quick quote
+Quote Post

Reply to this topicStart new topic
1 User(s) are reading this topic (1 Guests and 0 Anonymous Users)
0 Members:

 



- Lo-Fi Version Support form
Copyrights and abuse reports form
Time is now: 25th October 2021 - 20:24:37