Welcome Guest ( Log In | Register )

> Releases Upload / Добавление релизов

Добавить релиз тут / Click here to add release
Рекомендованные обменники / Recommended file shares

 
Reply to this topicStart new topic
> Dannhad - The End​.​.​. [ep] (2020), Depressive Black Metal
post Sep 26 2021, 23:29:24
Post #1

Правь статус, ####!616
**************
Group: Металариец
Posts: 7,188
Releases: 5626
From: 55°35’N 38°08’E
On Forums: 13 years 3 months
Thanks: 102763 time(s)
Unknown


(IMG:https://metalarea.org/images/audiocovers/2021_Sep/acov_tid356008_thumb.jpg)

*Artist: Dannhad
*Album: The End​.​.​. [ep]
*Year: 2020
*Genre: Depressive Black Metal
*Country: Italy (IMG:https://metalarea.org/forum/style_images/flags/Italy.png)
*Format: mp3@CBR320kbps
*Size: 40MB

Tracklist:
1.The End... 01:13
2.A Never Forgotten Cry 05:26
3.Vei Uten Retur 04:17
4.The Last Sunset 06:26
******************************
Total playing time: 17:22



Technical info
(IMG:https://metalarea.org/images/spectrogram/2021_Sep/7392cd25000806748beff6acc04b67fd.png)
Input File: 02 A Never Forgotten Cry.mp3
Channels : 2
Sample Rate : 44100
Precision : 16-bit
Duration : 00:05:26.32 = 14390536 samples = 24473.7 CDDA sectors
File Size : 13.2M
Bit Rate : 322k
Sample Encoding: MPEG audio (layer I, II or III)
Comments :
Title=A Never Forgotten Cry
Artist=Dannhad
Album=The End...
Tracknumber=2
Year=2020
Genre=Depressive Black Metal



Register


Go to the top of the page
  Insert nick Quick quote
+Quote Post

Reply to this topicStart new topic
1 User(s) are reading this topic (1 Guests and 0 Anonymous Users)
0 Members:

 



- Lo-Fi Version Support form
Copyrights and abuse reports form
Time is now: 20th October 2021 - 14:46:55